Важное объявление!
У Нас Все раздачи мультитрекерные, при нуле пиров в релизах, можете смело вставать на закачку!
 
Автор Сообщение

HUNTER

Стаж:
4 года 4 месяца
Сообщений:
56772

Репутация: 101

[+] [-]
Вне форума [Профиль] [ЛС]

Винни Пух: Весенние денёчки с малышом Ру / Winnie the Pooh: Springtime with Roo-
Страна: США
Жанр: мультфильм, комедия, семейный
Год выпуска: 2004
Продолжительность: 01:05:31
Перевод: Профессиональный (полное дублирование)
Субтитры: Нет-Режиссер: Сауль Эндрю Блинкофф / Saul Andrew Blinkoff, Эллиот М. Бур / Elliot M. Bour-Роли озвучивали: Джим Каммингс (Winnie The Pooh, Tigger, озвучка), Кен Сэнсом (Rabbit, озвучка), Джимми Беннетт (Roo, озвучка), Дэвид Огден Стайерз (рассказчик, озвучка), Кэт Сауси (Kanga, озвучка), Джон Фидлер (Piglet, озвучка), Питер Каллен (Eeyore, озвучка)-Роли дублировали: Виктор Костецкий (Tigger), Владимир Баранов (Winnie The Pooh), Георгий Корольчук (Rabbit), Елизавета Захарьева (Roo), Станислав Концевич (рассказчик), Мария Соснякова (Kanga), Андрей Матвеев (Piglet), Дмитрий Лагачев (Eeyore)-Описание: Вот и наступил это замечательный весенний денек! Пчелки жужжат, цветочки распускаются, а Ру, Винни и Тигруля уже готовы к веселью и играм. Но Кролик не хочет никого выпускать на улицу, пока не будет закончена большая сезонная уборка!
Сможет ли что-то или кто-то повлиять на строгого Кролика? С помощью мудрости и доброты Ру Кролик вскоре понимает, что на свете есть необычные дни и к ним нужно относиться особенно.
-Рейтинг:

MPAA: - Нет возрастных ограничений-Мировая премьера: 23 марта 2004
Релиз на DVD: 3 августа 2009, «CP-Digital»
Релиз на Blu-ray: 11 ноября 2014, «Уолт Дисней Компани СНГ»-Релиз: -Качество: BDRip [Исходник]
Формат: AVI
Видео: 720x400 (1.80:1), 23.976 fps, XviD build 65 ~2347 kbps avg, 0.34 bit/pixel
Аудио 1: 48 kHz, AC3 Dolby Digital, 2/0 (L,R) ch, ~192 kbps - Dub
Аудио 2: 48 kHz, AC3 Dolby Digital, 3/2 (L,C,R,l,r) + LFE ch, ~448 kbps - Eng
Субтитры: Отсутствуют
-

MI

Format : AVIFormat/Info : Audio Video InterleaveFile size : 1.37 GiBDuration : 1h 5mnOverall bit rate : 3 003 KbpsWriting application : VirtualDubMod 1.5.10.3 | www.virtualdub-fr.org || (build 2550/release)Writing library : VirtualDubMod build 2550/release
VideoID : 0Format : MPEG-4 VisualFormat profile : Advanced Simple@L5Format settings, BVOP : 2Format settings, QPel : NoFormat settings, GMC : No warppointsFormat settings, Matrix : CustomCodec ID : XVIDCodec ID/Hint : XviDDuration : 1h 5mnBit rate : 2 348 KbpsWidth : 720 pixelsHeight : 400 pixelsDisplay aspect ratio : 16:9Frame rate : 23.976 fpsColor space : YUVChroma subsampling : 4:2:0Bit depth : 8 bitsScan type : ProgressiveCompression mode : LossyBits/(Pixel*Frame) : 0.340Stream size : 1.07 GiB (78%)Writing library : XviD 65
Audio #1ID : 1Format : AC-3Format/Info : Audio Coding 3Mode extension : CM (complete main)Format settings, Endianness : BigCodec ID : 2000Duration : 1h 5mnBit rate mode : ConstantBit rate : 192 KbpsChannel(s) : 2 channelsChannel positions : Front: L RSampling rate : 48.0 KHzBit depth : 16 bitsCompression mode : LossyStream size : 90.0 MiB (6%)Alignment : Split accross interleavesInterleave, duration : 42 ms (1.00 video frame)Interleave, preload duration : 500 ms
Audio #2ID : 2Format : AC-3Format/Info : Audio Coding 3Mode extension : CM (complete main)Format settings, Endianness : BigCodec ID : 2000Duration : 1h 5mnBit rate mode : ConstantBit rate : 448 KbpsChannel(s) : 6 channelsChannel positions : Front: L C R, Side: L R, LFESampling rate : 48.0 KHzBit depth : 16 bitsCompression mode : LossyStream size : 210 MiB (15%)Alignment : Split accross interleavesInterleave, duration : 42 ms (1.00 video frame)Interleave, preload duration : 500 ms
Все раздачи мультфильма!

_________________
Показать сообщения:    

Текущее время: Сегодня 16:41

Часовой пояс: GMT



Вы не можете начинать темы
Вы не можете отвечать на сообщения
Вы не можете редактировать свои сообщения
Вы не можете удалять свои сообщения
Вы не можете голосовать в опросах
Вы не можете прикреплять файлы к сообщениям
Вы не можете скачивать файлы