Важное объявление!
У Нас Все раздачи мультитрекерные, при нуле пиров в релизах, можете смело вставать на закачку!
 
Автор Сообщение

HUNTER

Стаж:
4 года 4 месяца
Сообщений:
56755

Репутация: 101

[+] [-]
Вне форума [Профиль] [ЛС]

Виктория: История любви / Victoria
Страна: Норвегия
Жанр: драма, мелодрама
Год выпуска: 2013
Продолжительность: 01:41:57
Перевод: Профессиональный (многоголосый закадровый)
Cубтитры: нет
Режиссер: Торун Лиан / Torun Lian
В ролях: Билл Скарсгард, Якоб Офтебро, Техилла Блад, Фридтьов Сохейм, Аманда Оомс, Аннеке фон Дер Липпе, Петронелла Баркер, Мэдс Сьёгард Петтерсен, Ибен М. Акерлие, Магнус Роосманн
Описание: Виктория — дочь помещика, а Юханнес — сын мельника. Они знакомы с детства, и любовь рождается уже тогда. Но материальные и социальные различия между ними становятся непреодолимым препятствием, и несчастье становится явью, когда Викторию отдают замуж за друга семьи Отто.
Сэмпл: http://rusfolder.com/42279563

Тип релиза: HDTV 1080i
Контейнер: TS
Видео: AVC/H.264, PAL, 1920х1080 (16:9), 25 fps, 8604 Kbps
Аудио: русский, MP-2, 48000 Hz, 192 Кбит/сек, 2 ch

MediaInfo

Общее
Идентификатор : 1 (0x1)
Полное имя : D:\Виктория. История любви..ts
Формат : MPEG-TS
Размер файла : 6,59 Гбайт
Продолжительность : 1 ч. 41 м.
Режим общего битрейта : Переменный
Общий поток : 9255 Кбит/сек
Максимальный общий битрейт : 35,5 Мбит/сек
Видео
Идентификатор : 4113 (0x1011)
Идентификатор меню : 1 (0x1)
Формат : AVC
Формат/Информация : Advanced Video Codec
Профиль формата : Main@L4.0
Параметр CABAC формата : Да
Параметр ReFrames формата : 3 кадра
Идентификатор кодека : 27
Продолжительность : 1 ч. 41 м.
Вид битрейта : Переменный
Битрейт : 8604 Кбит/сек
Максимальный битрейт : 40,0 Мбит/сек
Ширина : 1920 пикселей
Высота : 1080 пикселей
Соотношение сторон : 16:9
Частота кадров : 25,000 кадров/сек
Стандарт вещания : Component
Цветовое пространство : YUV
Субдискретизация насыщенности : 4:2:0
Битовая глубина : 8 бит
Тип развёртки : Чересстрочная
Порядок развёртки : Верхнее поле первое
Бит/(Пиксели*Кадры) : 0.166
Размер потока : 6,13 Гбайт (93%)
Основные цвета : BT.709
Характеристики трансфера : BT.709
Коэффициенты матрицы : BT.709
Аудио
Идентификатор : 4352 (0x1100)
Идентификатор меню : 1 (0x1)
Формат : MPEG Audio
Версия формата : Version 1
Профиль формата : Layer 2
Идентификатор кодека : 4
Продолжительность : 1 ч. 41 м.
Вид битрейта : Постоянный
Битрейт : 192 Кбит/сек
Каналы : 2 канала
Частота : 48,0 КГц
Метод сжатия : С потерями
Размер потока : 140 Мбайт (2%)
Язык : Russian

Скриншот c названием фильма

Скриншоты


_________________
Показать сообщения:    

Текущее время: Сегодня 16:39

Часовой пояс: GMT



Вы не можете начинать темы
Вы не можете отвечать на сообщения
Вы не можете редактировать свои сообщения
Вы не можете удалять свои сообщения
Вы не можете голосовать в опросах
Вы не можете прикреплять файлы к сообщениям
Вы не можете скачивать файлы