Важное объявление!
У Нас Все раздачи мультитрекерные, при нуле пиров в релизах, можете смело вставать на закачку!
 
Автор Сообщение

HUNTER

Стаж:
4 года 4 месяца
Сообщений:
56829

Репутация: 101

[+] [-]
Вне форума [Профиль] [ЛС]

Виктор Франкенштейн / Victor Frankenstein-
Год выпуска: 2010
Выпущено: США
Жанр: ужасы, фантастика, драма
Продолжительность: 01:49:49
Перевод: Профессиональный (полное дублирование)
Оригинальная звуковая дорожка: English
Субтитры: Russian (Forced, iTunes), Russian (iTunes), Ukrainian (Forced, iTunes), Ukrainian (iTunes), English (iTunes)-Режиссер: Пол МакГиган / Paul McGuigan
В ролях: Дэниэл Рэдклифф, Джеймс МакЭвой, Джессика Браун-Финдли, Бронсон Уэбб, Дэниэл Мейс, Спенсер Уидлинг, Робин Пирс, Эндрю Скотт, Каллум Тернер, Ди Ботчер
О фильме: Новый взгляд на фантастическую историю Виктора Франкенштейна, на этот раз — с точки зрения его помощника Игоря.
EbP!
Релиз:
Тип релиза: BDRip 1080p
Формат: MKV
Видео: 1920x802 at 23.976 fps, x264@L4,1, CRF, ~19.0 Mbps avg
Аудио #01: Russian: 48 kHz, DTS, 3/2 (L,C,R,l,r) + LFE ch, ~768.00 kbps avg |Дубляж, Blu-ray EUR|
Аудио #02: Ukrainian: 48 kHz, AC3, 3/2 (L,C,R,l,r) + LFE ch, ~448.00 kbps avg |Дубляж, Blu-ray EUR|
Аудио #03: English: 48 kHz, DTS-ES, 3/3 (L,C,R,l,c,r) + LFE ch, ~1536.00 kbps avg
Семпл-
-

mInfo

Формат : Matroska
Версия формата : Version 4 / Version 2
Размер файла : 16,7 Гбайт
Продолжительность : 1 ч. 49 м.
Общий поток : 21,8 Мбит/сек
Название фильма : Victor Frankenstein (2015) - Release for HDCLUB
Дата кодирования : UTC 2016-03-11 12:37:46
Программа кодирования : mkvmerge v7.0.0 ('Where We Going') 32bit built on Jun 9 2014 15:08:34
Библиотека кодирования : libebml v1.3.0 + libmatroska v1.4.1
DURATION : 01:42:55.880000000
NUMBER_OF_FRAMES : 1146
NUMBER_OF_BYTES : 38930
_STATISTICS_WRITING_APP : mkvmerge v7.0.0 ('Where We Going') 32bit built on Jun 9 2014 15:08:34
_STATISTICS_WRITING_DATE_UTC : 2016-03-11 12:37:46
_STATISTICS_TAGS : BPS DURATION NUMBER_OF_FRAMES NUMBER_OF_BYTES
Видео
Идентификатор : 1
Формат : AVC
Формат/Информация : Advanced Video Codec
Профиль формата : High@L4.1
Параметр CABAC формата : Да
Параметр ReFrames формата : 5 кадров
Идентификатор кодека : V_MPEG4/ISO/AVC
Продолжительность : 1 ч. 49 м.
Битрейт : 18,7 Мбит/сек
Ширина : 1920 пикселей
Высота : 802 пикселя
Соотношение сторон : 2,40:1
Режим частоты кадров : Постоянный
Частота кадров : 23,976 кадра/сек
Цветовое пространство : YUV
Субдискретизация насыщенности : 4:2:0
Битовая глубина : 8 бит
Тип развёртки : Прогрессивная
Бит/(Пиксели*Кадры) : 0.506
Размер потока : 14,3 Гбайт (86%)
Заголовок : Victor Frankenstein (2015) - Release for HDCLUB
Библиотека кодирования : x264 core 146 r0+2586 e393126 t_mod_Custom [8-bit@all X86_64]
Настройки программы : cabac=1 / ref=5 / deblock=1:-3:-3 / analyse=0x3:0x113 / me=tesa / subme=11 / psy=1 / fade_compensate=0.00 / psy_rd=1.00:0.00 / mixed_ref=1 / me_range=32 / chroma_me=1 / trellis=2 / 8x8dct=1 / cqm=0 / deadzone=21,11 / fast_pskip=0 / chroma_qp_offset=-2 / threads=18 / lookahead_threads=4 / sliced_threads=0 / nr=0 / decimate=1 / interlaced=0 / bluray_compat=0 / constrained_intra=0 / fgo=0 / bframes=12 / b_pyramid=2 / b_adapt=2 / b_bias=0 / direct=3 / weightb=1 / open_gop=0 / weightp=2 / keyint=240 / keyint_min=23 / scenecut=40 / intra_refresh=0 / rc_lookahead=240 / rc=crf / mbtree=0 / crf=16.5000 / qcomp=0.64 / qpmin=0:0:0 / qpmax=51:51:51 / qpstep=4 / vbv_maxrate=62500 / vbv_bufsize=78125 / crf_max=0.0 / nal_hrd=none / filler=0 / ip_ratio=1.30 / pb_ratio=1.20 / aq=1:0.80 / aq-sensitivity=10.00 / aq-factor=1.00:1.00:1.00 / aq2=0 / aq3=0 / zones=2934,3201,crf=14/3768,3805,crf=10/3862,3892,crf=14/4815,4840,crf=14/10335,10393,crf=14/10494,10689,crf=14/11833,11905,crf=14/12522,12551,crf=14/12612,12641,crf=14/13052,13067,crf=14/13675,13700,crf=14/13785,13800,crf=14/14365,14387,crf=14/15108,15148,crf=14/22491,22521,crf=14/23849,24041,crf=14/38460,38530,crf=14/38587,38776,crf=14/39177,39238,crf=14/39349,39459,crf=14/39760,40165,crf=14/46091,46136,crf=14/46547,46719,crf=14/48371,48409,crf=14/48923,48936,crf=14/53313,53359,crf=14/56656,56693,crf=14/56985,57030,crf=14/57267,57319,crf=14/57510,57642,crf=14/60012,60123,crf=14/60535,60604,crf=14/60955,60976,crf=14/61278,61318,crf=14/61857,61898,crf=14/69077,70035,crf=10/74529,74581,crf=14/74643,74740,crf=14/74809,75069,crf=14/79970,80199,crf=14/80248,80306,crf=14/89206,89304,crf=14/89983,90006,crf=14/94598,94692,crf=14/95183,95274,crf=14/96111,96198,crf=14/102945,102982,crf=14/103047,103101,crf=14/103135,103232,crf=14/107905,107932,crf=10/107992,108011,crf=10/108097,108151,crf=10/108335,108372,crf=10/108916,109248,crf=10/109688,109769,crf=12/127325,127372,crf=12/128801,128855,crf=12/129098,129152,crf=12/131583,131597,crf=12/132674,132709,crf=12/132814,132865,crf=12
Язык : English
Default : Да
Forced : Нет
Основные цвета : BT.709
Характеристики трансфера : BT.709
Коэффициенты матрицы : BT.709
colour_range : Limited
DURATION : 01:49:49.875000000
NUMBER_OF_FRAMES : 157999
NUMBER_OF_BYTES : 15729049768
_STATISTICS_WRITING_APP : mkvmerge v7.0.0 ('Where We Going') 32bit built on Jun 9 2014 15:08:34
_STATISTICS_WRITING_DATE_UTC : 2016-03-11 12:37:46
_STATISTICS_TAGS : BPS DURATION NUMBER_OF_FRAMES NUMBER_OF_BYTES
Аудио #1
Идентификатор : 2
Формат : DTS
Формат/Информация : Digital Theater Systems
Режим : 16
Параметр Endianness формата : Big
Идентификатор кодека : A_DTS
Продолжительность : 1 ч. 49 м.
Вид битрейта : Постоянный
Битрейт : 768 Кбит/сек
Каналы : 6 каналов
Расположение каналов : Front: L C R, Side: L R, LFE
Частота : 48,0 КГц
Битовая глубина : 24 бит
Метод сжатия : С потерями
Размер потока : 603 Мбайт (4%)
Заголовок : DTS 5.1 @ 768 kbps - DUB, Blu-ray EUR
Язык : Russian
Default : Да
Forced : Нет
Аудио #2
Идентификатор : 3
Формат : AC-3
Формат/Информация : Audio Coding 3
Расширение режима : CM (complete main)
Параметр Endianness формата : Big
Идентификатор кодека : A_AC3
Продолжительность : 1 ч. 49 м.
Вид битрейта : Постоянный
Битрейт : 448 Кбит/сек
Каналы : 6 каналов
Расположение каналов : Front: L C R, Side: L R, LFE
Частота : 48,0 КГц
Битовая глубина : 16 бит
Метод сжатия : С потерями
Размер потока : 352 Мбайт (2%)
Заголовок : AC3 5.1 @ 448 kbps - DUB, Blu-ray EUR
Язык : Ukrainian
Default : Нет
Forced : Нет
Аудио #3
Идентификатор : 4
Формат : DTS
Формат/Информация : Digital Theater Systems
Профиль формата : ES
Режим : 16
Параметр Endianness формата : Big
Идентификатор кодека : A_DTS
Продолжительность : 1 ч. 49 м.
Вид битрейта : Постоянный
Битрейт : 1509 Кбит/сек
Каналы : 6 каналов
Расположение каналов : Front: L C R, Side: L R, LFE
Частота : 48,0 КГц
Битовая глубина : 24 бит
Метод сжатия : С потерями
Размер потока : 1,16 Гбайт (7%)
Заголовок : DTS-ES 5.1 @ 1536 kbps
Язык : English
Default : Нет
Forced : Нет
Текст #1
Идентификатор : 5
Формат : UTF-8
Идентификатор кодека : S_TEXT/UTF8
Идентификатор кодека/Информация : UTF-8 Plain Text
Заголовок : Forced, iTunes
Язык : Russian
Default : Да
Forced : Нет
Текст #2
Идентификатор : 6
Формат : UTF-8
Идентификатор кодека : S_TEXT/UTF8
Идентификатор кодека/Информация : UTF-8 Plain Text
Заголовок : iTunes
Язык : Russian
Default : Нет
Forced : Нет
Текст #3
Идентификатор : 7
Формат : UTF-8
Идентификатор кодека : S_TEXT/UTF8
Идентификатор кодека/Информация : UTF-8 Plain Text
Заголовок : Forced, iTunes
Язык : Ukrainian
Default : Нет
Forced : Нет
Текст #4
Идентификатор : 8
Формат : UTF-8
Идентификатор кодека : S_TEXT/UTF8
Идентификатор кодека/Информация : UTF-8 Plain Text
Заголовок : iTunes
Язык : Ukrainian
Default : Нет
Forced : Нет
Текст #5
Идентификатор : 9
Формат : UTF-8
Идентификатор кодека : S_TEXT/UTF8
Идентификатор кодека/Информация : UTF-8 Plain Text
Заголовок : iTunes
Язык : English
Default : Нет
Forced : Нет
Меню
00:00:00.000 : en:Chapter 1
00:04:07.372 : en:Chapter 2
00:08:06.903 : en:Chapter 3
00:11:14.674 : en:Chapter 4
00:15:20.378 : en:Chapter 5
00:18:58.554 : en:Chapter 6
00:22:27.263 : en:Chapter 7
00:26:06.857 : en:Chapter 8
00:28:59.237 : en:Chapter 9
00:32:02.379 : en:Chapter 10
00:36:01.451 : en:Chapter 11
00:41:11.427 : en:Chapter 12
00:46:17.692 : en:Chapter 13
00:51:48.480 : en:Chapter 14
00:56:42.691 : en:Chapter 15
00:59:55.509 : en:Chapter 16
01:02:37.587 : en:Chapter 17
01:06:57.180 : en:Chapter 18
01:11:25.198 : en:Chapter 19
01:15:14.051 : en:Chapter 20
01:18:10.352 : en:Chapter 21
01:21:06.278 : en:Chapter 22
01:25:20.490 : en:Chapter 23
01:28:17.542 : en:Chapter 24
01:33:35.276 : en:Chapter 25
01:37:51.783 : en:Chapter 26
01:41:32.920 : en:Chapter 27
01:43:34.375 : en:Chapter 28

-
Цитата:
Цитата:

* Сохранены оригинальные главы как на Blu-ray.
* Исходный WEB-DL куплен в рамках сервиса "Копилка".
* FillMargins and BalanceBorders were used to fix the 20th Century Fox intro and some dirty lines along the movie. Applied F3kdb ConditionalFilter for some scenes with Banding & Blocking. Zoned 63 parts & set a extra birate to prevent banding and blocking. Special thanks: Mont and Nick007 for pointing me out some zones that i've missing.

_________________
Показать сообщения:    

Текущее время: Сегодня 17:37

Часовой пояс: GMT



Вы не можете начинать темы
Вы не можете отвечать на сообщения
Вы не можете редактировать свои сообщения
Вы не можете удалять свои сообщения
Вы не можете голосовать в опросах
Вы не можете прикреплять файлы к сообщениям
Вы не можете скачивать файлы