Важное объявление!
У Нас Все раздачи мультитрекерные, при нуле пиров в релизах, можете смело вставать на закачку!
 
Автор Сообщение

HUNTER

Стаж:
4 года 4 месяца
Сообщений:
56798

Репутация: 101

[+] [-]
Вне форума [Профиль] [ЛС]

-Видеоуроки по Photoshop "С нуля и до полного изучения" -

Год выпуска: 2012
Страна:
Сайт производителя: videokrot.ru
Тематика: Photoshop
Тип материала: обучающее видео-Продолжительность: 08:22:46
Автор: Максим Белякович-Язык: Русский
Субтитры: отсутствуют-Описание: Полное собрание. В раздаче 27 серий, которые начинающим будут очень интересны. Все видео уроки авторские и аналогов нет. Продвинутым тоже будет интересно, так как после 15 урока идут видео для профи. А проще сказать с нуля и до полного изучения Photoshop-Качество: HDRip
Формат: mp4
Видео кодек: MPEG4 Video
Аудио кодек: MP3
Видео: MPEG4 Video 640x480 29.97fps 155kbps [Video]
Аудио: MP3 44100Hz mono 116kbps [Audio]-

Содержание

27 серий о том, как можно из новичка превратиться в виртуоза, причем не запоминая основных шагов, а просто повторяя их. Все слово в слово, кадр в кадр, и Вы обязательно всему научитесь. Уроки, как я сказал авторские, точнее мои, и аналогов нет, разве что похожие или картинка другая. Сделано с умом, и для начинающих. Интересно будет и профи, но если они не будут зацикливаться на том, как я объясняю человеку, который первый раз открыл Photoshop

MediaInfo

Код: copyText_writeLink('this.parentNode.parentNode.nextSibling.nextSibling'); General
Complete name : D:\обучение 25,12\Видео уроки\Lesson 1.mp4
Format : MPEG-4
Format profile : Base Media / Version 2
Codec ID : mp42
File size : 29.2 MiB
Duration : 14mn 54s
Overall bit rate mode : Variable
Overall bit rate : 274 Kbps
Encoded date : UTC 2012-01-30 20:13:44
Tagged date : UTC 2012-01-30 20:13:45
Writing application : mp4creator 1.4.4
Video
ID : 1
Format : MPEG-4 Visual
Format profile : Simple@L3
Format settings, BVOP : No
Format settings, QPel : No
Format settings, GMC : No warppoints
Format settings, Matrix : Default (H.263)
Codec ID : 20
Duration : 14mn 54s
Bit rate mode : Variable
Bit rate : 155 Kbps
Maximum bit rate : 1 680 Kbps
Width : 640 pixels
Height : 480 pixels
Display aspect ratio : 4:3
Frame rate mode : Variable
Frame rate : 29.970 fps
Minimum frame rate : 29.960 fps
Maximum frame rate : 29.970 fps
Color space : YUV
Chroma subsampling : 4:2:0
Bit depth : 8 bits
Scan type : Progressive
Compression mode : Lossy
Bits/(Pixel*Frame) : 0.017
Stream size : 16.5 MiB (57%)
Language : English
Encoded date : UTC 2012-01-30 20:13:44
Tagged date : UTC 2012-01-30 20:13:45
Audio
ID : 2
Format : MPEG Audio
Format version : Version 1
Format profile : Layer 3
Codec ID : 6B
Duration : 14mn 54s
Source duration : 14mn 54s
Bit rate mode : Variable
Bit rate : 117 Kbps
Maximum bit rate : 128 Kbps
Channel(s) : 1 channel
Sampling rate : 44.1 KHz
Compression mode : Lossy
Stream size : 12.4 MiB (43%)
Source stream size : 12.4 MiB (43%)
Language : English
Encoded date : UTC 2012-01-30 20:13:45
Tagged date : UTC 2012-01-30 20:13:45
-

_________________
Показать сообщения:    

Текущее время: Сегодня 04:28

Часовой пояс: GMT



Вы не можете начинать темы
Вы не можете отвечать на сообщения
Вы не можете редактировать свои сообщения
Вы не можете удалять свои сообщения
Вы не можете голосовать в опросах
Вы не можете прикреплять файлы к сообщениям
Вы не можете скачивать файлы