Важное объявление!
У Нас Все раздачи мультитрекерные, при нуле пиров в релизах, можете смело вставать на закачку!
 
Автор Сообщение

HUNTER

Стаж:
4 года 4 месяца
Сообщений:
56808

Репутация: 101

[+] [-]
Вне форума [Профиль] [ЛС]

Видения / Visions
Страна: США
Студия: Blumhouse Productions, Chapter One Films
Жанр: ужасы, триллер
Год выпуска: 2015
Продолжительность: 01:22:21
Перевод: Профессиональный (дублированный) iTunes
Cубтитры: английские
Оригинальная аудиодорожка: английский
Режиссер: Кевин Гротерт / Kevin Greutert
В ролях: Айла Фишер, Джим Парсонс, Ева Лонгория, Эллен Баркин, Энсон Маунт, Джиллиан Джейкобс, Джоанна Кэссиди, Брайс Джонсон, Джефф Брэнсон
Описание: Чтобы быть рядом со своим мужем, беременная женщина переезжает на виноградную ферму. Там ее начинают одолевать страшные видения…

Тип релиза: BDRip 1080p
Контейнер: MKV
Видео: MPEG-4 AVC, 12.2 Mбит/с, 1920x800, 23,976 fps
Аудио: Rus, AC3, 384 kb/s (6 ch), 48 kHz
Аудио 2: Eng, AC3, 640 kb/s (6 ch), 48 kHz
Формат субтитров: softsub (SRT)

MediaInfo

x264 [info]: frame I:961 Avg QP:12.08 size:225007
x264 [info]: frame P:23173 Avg QP:13.31 size:123576
x264 [info]: frame B:94444 Avg QP:14.82 size: 48845
x264 [info]: consecutive B-frames: 1.7% 1.6% 6.5% 5.5% 11.9% 67.0% 4.1% 1.7%
Format : Matroska
Format version : Version 4 / Version 2
File size : 7.76 GiB
Duration : 1h 22mn
Overall bit rate : 13.5 Mbps
Movie name : Видения. (Tonik)
Encoded date : UTC 2016-02-28 11:14:40
Writing application : mkvmerge v7.1.0 ('Good Love') 64bit built on Jul 27 2014 13:06:55
Writing library : libebml v1.3.0 + libmatroska v1.4.1
_STATISTICS_WRITING_APP : mkvmerge v7.1.0 ('Good Love') 64bit built on Jul 27 2014 13:06:55
_STATISTICS_WRITING_DATE_UTC : 2016-02-28 11:14:40
_STATISTICS_TAGS : BPS DURATION NUMBER_OF_FRAMES NUMBER_OF_BYTES
DURATION : 01:22:24.800000000
NUMBER_OF_FRAMES : 154525
NUMBER_OF_BYTES : 237350400
Video
ID : 1
Format : AVC
Format/Info : Advanced Video Codec
Format profile : High@L4.1
Format settings, CABAC : Yes
Format settings, ReFrames : 5 frames
Codec ID : V_MPEG4/ISO/AVC
Duration : 1h 22mn
Bit rate : 12.2 Mbps
Width : 1 920 pixels
Height : 800 pixels
Display aspect ratio : 2.40:1
Frame rate mode : Constant
Frame rate : 23.976 fps
Color space : YUV
Chroma subsampling : 4:2:0
Bit depth : 8 bits
Scan type : Progressive
Bits/(Pixel*Frame) : 0.331
Stream size : 7.01 GiB (90%)
Writing library : x264 core 146 r2538kMod 121396c
Encoding settings : cabac=1 / ref=5 / deblock=1:-3:-3 / analyse=0x3:0x133 / me=umh / subme=10 / psy=1 / fade_compensate=0.00 / psy_rd=1.00:0.00 / mixed_ref=1 / me_range=24 / chroma_me=1 / trellis=2 / 8x8dct=1 / cqm=0 / deadzone=21,11 / fast_pskip=0 / chroma_qp_offset=-2 / threads=12 / lookahead_threads=2 / sliced_threads=0 / nr=0 / decimate=0 / interlaced=0 / bluray_compat=0 / constrained_intra=0 / fgo=0 / bframes=7 / b_pyramid=2 / b_adapt=2 / b_bias=0 / direct=3 / weightb=1 / open_gop=0 / weightp=2 / keyint=250 / keyint_min=23 / scenecut=40 / intra_refresh=0 / rc_lookahead=60 / rc=crf / mbtree=0 / crf=16.0000 / qcomp=0.60 / qpmin=0 / qpmax=69 / qpstep=4 / vbv_maxrate=62500 / vbv_bufsize=78125 / crf_max=0.0 / nal_hrd=none / filler=0 / ip_ratio=1.30 / pb_ratio=1.20 / aq=3:0.75
Language : English
Default : Yes
Forced : No
Matrix coefficients : BT.709
_STATISTICS_WRITING_APP : mkvmerge v7.1.0 ('Good Love') 64bit built on Jul 27 2014 13:06:55
_STATISTICS_WRITING_DATE_UTC : 2016-02-28 11:14:40
_STATISTICS_TAGS : BPS DURATION NUMBER_OF_FRAMES NUMBER_OF_BYTES
DURATION : 01:22:25.691000000
NUMBER_OF_FRAMES : 118578
NUMBER_OF_BYTES : 7692954977
Audio #1
ID : 2
Format : AC-3
Format/Info : Audio Coding 3
Mode extension : CM (complete main)
Format settings, Endianness : Big
Codec ID : A_AC3
Duration : 1h 22mn
Bit rate mode : Constant
Bit rate : 384 Kbps
Channel(s) : 6 channels
Channel positions : Front: L C R, Side: L R, LFE
Sampling rate : 48.0 KHz
Bit depth : 16 bits
Compression mode : Lossy
Stream size : 226 MiB (3%)
Language : Russian
Default : Yes
Forced : No
Audio #2
ID : 3
Format : AC-3
Format/Info : Audio Coding 3
Mode extension : CM (complete main)
Format settings, Endianness : Big
Codec ID : A_AC3
Duration : 1h 22mn
Bit rate mode : Constant
Bit rate : 640 Kbps
Channel(s) : 6 channels
Channel positions : Front: L C R, Side: L R, LFE
Sampling rate : 48.0 KHz
Bit depth : 16 bits
Compression mode : Lossy
Stream size : 377 MiB (5%)
Language : English
Default : No
Forced : No
Text #1
ID : 4
Format : UTF-8
Codec ID : S_TEXT/UTF8
Codec ID/Info : UTF-8 Plain Text
Title : forced
Language : English
Default : No
Forced : No
Text #2
ID : 5
Format : UTF-8
Codec ID : S_TEXT/UTF8
Codec ID/Info : UTF-8 Plain Text
Language : English
Default : No
Forced : No
Text #3
ID : 6
Format : UTF-8
Codec ID : S_TEXT/UTF8
Codec ID/Info : UTF-8 Plain Text
Title : SDH
Language : English
Default : No
Forced : No
Menu
00:00:00.000 : en:00:00:00.000
00:15:55.037 : en:00:15:55.037
00:25:52.050 : en:00:25:52.050
00:35:41.890 : en:00:35:41.890
00:45:43.074 : en:00:45:43.074
00:57:32.574 : en:00:57:32.574
01:05:03.608 : en:01:05:03.608
01:16:27.833 : en:01:16:27.833

Скриншоты


_________________
Показать сообщения:    

Текущее время: Сегодня 09:30

Часовой пояс: GMT



Вы не можете начинать темы
Вы не можете отвечать на сообщения
Вы не можете редактировать свои сообщения
Вы не можете удалять свои сообщения
Вы не можете голосовать в опросах
Вы не можете прикреплять файлы к сообщениям
Вы не можете скачивать файлы