Важное объявление!
У Нас Все раздачи мультитрекерные, при нуле пиров в релизах, можете смело вставать на закачку!
 
Автор Сообщение

HUNTER

Стаж:
4 года 4 месяца
Сообщений:
56822

Репутация: 101

[+] [-]
Вне форума [Профиль] [ЛС]

Видения / InSight
Страна: США
Жанр: триллер, драма, детектив
Год выпуска: 2011
Продолжительность: 01:27:54
Перевод: Профессиональный (многоголосый закадровый)
Cубтитры: нет
Оригинальная аудиодорожка: нет
Режиссер: Ричард Габай
В ролях: Шон Патрик Флэнери, Натали Зи, Энжелин-Роуз Трой, Адам Болдуин, Томас Иэн Николас, Вероника Картрайт, Кристофер Ллойд, Джульетт Ландау, Макс Перлих, Лесли-Энн Брандт
Описание: Медсестру Кетлин ударило током от дефибрилятора, когда она спасала жертву убийцы, в больнице. После этого она стала видеть воспоминания жертвы. Кетлин бросилась к семье жертвы, полиции, друзьям, но никто ей не поверил и она решила взять расследование в свои руки. Вместе с детективом, Кетлин копается в прошлом жертвы и пытается понять, кто есть кто.
Сэмпл: http://multi-up.com/962500

Тип релиза: HDTV 1080i
Контейнер: MKV
Видео: MPEG4 (H264) 1920x1080 (16:9) 25 fps 7 308 Kbps
Аудио: AC3 5.1 ch 48 kHz 16 bit 448 Kbps

MediaInfo

General
Unique ID : 170703152251912944271318177269080445523 (0x806C3B335A3618448FC244CE8400D253)
Complete name : D:\Videniya.2011.HDTV.1080i.mkv
Format : Matroska
Format version : Version 4 / Version 2
File size : 4.86 GiB
Duration : 1h 27mn
Overall bit rate : 7 913 Kbps
Movie name : 27.03.2014 SharkN73
Encoded date : UTC 2014-03-27 17:07:00
Writing application : mkvmerge v6.8.0 ('Theme for Great Cities') 64bit built on Mar 2 2014 21:34:26
Writing library : libebml v1.3.0 + libmatroska v1.4.1
Video
ID : 1
Format : AVC
Format/Info : Advanced Video Codec
Format profile : High@L4.0
Format settings, CABAC : Yes
Format settings, ReFrames : 3 frames
Format settings, GOP : M=4, N=28
Codec ID : V_MPEG4/ISO/AVC
Duration : 1h 27mn
Bit rate : 7 308 Kbps
Width : 1 920 pixels
Height : 1 080 pixels
Display aspect ratio : 16:9
Frame rate mode : Constant
Frame rate : 25.000 fps
Standard : Component
Color space : YUV
Chroma subsampling : 4:2:0
Bit depth : 8 bits
Scan type : Interlaced
Scan order : Top Field First
Bits/(Pixel*Frame) : 0.141
Stream size : 4.49 GiB (92%)
Language : English
Default : Yes
Forced : No
Color primaries : BT.709
Transfer characteristics : BT.709
Matrix coefficients : BT.709
Audio
ID : 2
Format : AC-3
Format/Info : Audio Coding 3
Mode extension : CM (complete main)
Format settings, Endianness : Big
Codec ID : A_AC3
Duration : 1h 27mn
Bit rate mode : Constant
Bit rate : 448 Kbps
Channel(s) : 6 channels
Channel positions : Front: L C R, Side: L R, LFE
Sampling rate : 48.0 KHz
Bit depth : 16 bits
Compression mode : Lossy
Delay relative to video : 1ms
Stream size : 282 MiB (6%)
Language : Russian
Default : Yes
Forced : No

Скриншоты


_________________
Показать сообщения:    

Текущее время: Сегодня 06:01

Часовой пояс: GMT



Вы не можете начинать темы
Вы не можете отвечать на сообщения
Вы не можете редактировать свои сообщения
Вы не можете удалять свои сообщения
Вы не можете голосовать в опросах
Вы не можете прикреплять файлы к сообщениям
Вы не можете скачивать файлы