Важное объявление!
У Нас Все раздачи мультитрекерные, при нуле пиров в релизах, можете смело вставать на закачку!
 
Автор Сообщение

HUNTER

Стаж:
4 года 4 месяца
Сообщений:
56772

Репутация: 101

[+] [-]
Вне форума [Профиль] [ЛС]

Взгляд изнутри: Вторая мировая война / Inside World War II
Год выпуска: 2012
Жанр: Документальный, ВМВ, история, кинохроники
Продолжительность: 02:14:41
Перевод: Профессиональный (одноголосый закадровый)
Режиссер: Алекс Флестер / Alex Flaster, Патрик Бреннен / Patrick Brennan
Описание: Новый фильм от National Geographic посвящен Второй мировой войне. Вспомните тех кому вы обязаны. Ветераны рассказывают историю войны, как они ее видели. Они никогда не забудут ужасы этой войны. Рассказ о периоде с сентября 1933 года, когда Гитлер выступил с обращением к нацистской партии в Нюрнберге и до бомбардировки Нагасаки. Фильм включает в себя следующие эпизоды: предвоенное время в мире, аншлюс Австрии, захват Чехословакии, война с Польшей, Францией, битва за Британию, операция "Барбаросса", Перл-Харбор и битва за Мидуэй, бои в Северной Африке, Сталинград, Гуадалканальскую кампанию, высадку союзников во Франции, падение Берлина, разгром Японии.
Доп. информация: Авторство релиза alf62
В связи с тем, что на DVD имелось несколько эпизодов без перевода (общей продолжительностью 11 минут), было произведено их озвучивание А. Дольским.
Наложение чистого голоса А. Дольского на оригинальную дорогу Нордер, за что им всем огромное спасибо!
Финансовая поддержка alinto, Alf62.
Спасибо за предоставленный источник DVD - alinto: http://rutracker.org/forum/viewtopic.php?t=4594110
Сэмпл: http://multi-up.com/925245
качество: DVDRip
формат: AVI
Видео: 720x400 (1.80:1), 29.970 fps, DivX, ~1874 kbps avg, 0.22 bit/pixel
Аудио: 48 kHz, AC3 Dolby Digital, 2/0 (L,R) ch, ~192.00 kbps avg

MediaInfo

Взгляд изнутри Вторая мировая война\Vzgljad.iznutri.Vtoraja.mirovaja.vojna.2012.DivX.DVDRip.alf62.avi
Format : AVI
Format/Info : Audio Video Interleave
File size : 1.96 GiB
Duration : 2h 14mn
Overall bit rate : 2 078 Kbps
Writing application : VirtualDubMod 1.5.10.3 | www.virtualdub-fr.org || (build 2550/release)
Writing library : VirtualDubMod build 2550/release
Video
ID : 0
Format : MPEG-4 Visual
Format profile : Advanced Simple@L5
Format settings, BVOP : 2
Format settings, QPel : No
Format settings, GMC : No warppoints
Format settings, Matrix : Default (MPEG)
Codec ID : DX50
Codec ID/Hint : DivX 5
Duration : 2h 14mn
Bit rate : 1 874 Kbps
Width : 720 pixels
Height : 400 pixels
Display aspect ratio : 16:9
Frame rate : 29.970 fps
Color space : YUV
Chroma subsampling : 4:2:0
Bit depth : 8 bits
Scan type : Progressive
Compression mode : Lossy
Bits/(Pixel*Frame) : 0.217
Stream size : 1.76 GiB (90%)
Writing library : XviD 73
Audio
ID : 1
Format : AC-3
Format/Info : Audio Coding 3
Mode extension : CM (complete main)
Format settings, Endianness : Big
Codec ID : 2000
Duration : 2h 14mn
Bit rate mode : Constant
Bit rate : 192 Kbps
Channel(s) : 2 channels
Channel positions : Front: L R
Sampling rate : 48.0 KHz
Bit depth : 16 bits
Compression mode : Lossy
Stream size : 185 MiB (9%)
Alignment : Split accross interleaves
Interleave, duration : 33 ms (1.00 video frame)
Interleave, preload duration : 500 ms

_________________
Показать сообщения:    

Текущее время: Сегодня 11:28

Часовой пояс: GMT



Вы не можете начинать темы
Вы не можете отвечать на сообщения
Вы не можете редактировать свои сообщения
Вы не можете удалять свои сообщения
Вы не можете голосовать в опросах
Вы не можете прикреплять файлы к сообщениям
Вы не можете скачивать файлы