Важное объявление!
У Нас Все раздачи мультитрекерные, при нуле пиров в релизах, можете смело вставать на закачку!
 
Автор Сообщение

HUNTER

Стаж:
4 года 4 месяца
Сообщений:
56772

Репутация: 101

[+] [-]
Вне форума [Профиль] [ЛС]

Взвейся в небо / R2B: Return to Base-
Год выпуска: 2012
Страна: Корея Южная
Жанр: боевик, драма
Продолжительность: 01:55:07
Перевод: Любительский (двухголосый закадровый)(Виктор Ерёменко и Ольга Гринтиева)-Режиссер: Донг-вон Ким
Сценарий: Дон-жу Ким
Продюсер: Seong-keun Park, Moon-bo Shim-В ролях: Рэйн / Rain (Taehoon or Tae-hun), Joon-sang Yoo , Сюн-Су Ким / Seong-su Kim , Ха-на Ли / Ha-na Lee , Ли Чжон-Сок / Lee Jong-Suk , Чон Сок Вон / Jeong Seok Won , Bong-gi Baek , Soo-ho Ha , Kyeong-hoon Jeong , Син Се Гён / Shin Se Kyung (Yoo Se-young)
-Описание: Летчик-истребитель Чжон Тэ-Хун, служащий в элитном отряде ВВС «Черный Орел», совершил дерзкий поступок, сорвав авиа-шоу. Что он сделал? Всего ничего, чтобы доказать свое мастерство управления истребителем, парень выполнил фигуру высшего пилотажа, которую никто ранее до него не мог исполнить. Все это обрушило на Тэ-Хуна большие неприятности и угрозу увольнения. После этого летчик был вынужден перевестись в авиаотряд F15K, лучшим пилотом которого является Ли Чхоль-Хи. Тэ-Хун — свободолюбивый летчик, любящий нарушать всевозможные правила и не терпящий над собой давления, а Чхоль-Хи, наоборот, любит следовать всевозможным правилам. Так что конфликт между двумя такими противоположными, но сильными личностями неизбежен. Было решено, что для разрешения конфликта, будут устроены гонки на истребителях, на которых Тэ-Хун прежде не летал. Парень выбирает себе помощника в виде Ю Се-Ён, девушку-механика, которая является лучшим специалистом в службе технической поддержки. Однажды, неизвестный северокорейский боевой самолет появляется в небе над Сеулом и по тревоге о воздушном нападении был поднят отряд Тэ-Хуна. Им удалось защитить население и предотвратить трагедию, но, при этом они столкнулись с более серьезной проблемой — во время операции один из пилотов Чжи Сок-Хён оказался на враждебной территории. У отряда есть всего 7 минут на то, чтобы завершить беспрецедентную тайную операцию…-Бюджет: $10 000 000
Рейтинг: СЭМПЛ-Качество: HDTVRip
Формат: AVI
Видео кодек: XviD
Аудио кодеk: MP3
Видео: 720x304 (2.37:1), 23.976 fps, XviD MPEG-4 ~1495 kbps avg, 0.28 bit/pixel
Аудио: Аудио #1: 48 kHz, MPEG Layer 3, 2 ch, ~192.00 kbps avg
-

МедиаИнфо

Код: copyText_writeLink('this.parentNode.parentNode.nextSibling.nextSibling'); General
Complete name : Возвращение на базу.avi
Format : AVI
Format/Info : Audio Video Interleave
File size : 1.36 GiB
Duration : 1h 55mn
Overall bit rate : 1 696 Kbps
Writing application : VirtualDubMod 1.5.10.2 (build 2540/release)
Writing library : VirtualDubMod build 2540/release
Video
ID : 0
Format : MPEG-4 Visual
Format profile : Advanced Simple@L5
Format settings, BVOP : Yes
Format settings, QPel : No
Format settings, GMC : No warppoints
Format settings, Matrix : Default (MPEG)
Muxing mode : Packed bitstream
Codec ID : XVID
Codec ID/Hint : XviD
Duration : 1h 55mn
Bit rate : 1 495 Kbps
Width : 720 pixels
Height : 304 pixels
Display aspect ratio : 2.35:1
Frame rate : 23.976 fps
Color space : YUV
Chroma subsampling : 4:2:0
Bit depth : 8 bits
Scan type : Progressive
Bits/(Pixel*Frame) : 0.285
Stream size : 1.20 GiB (88%)
Writing library : XviD 64
Audio
ID : 1
Format : MPEG Audio
Format version : Version 1
Format profile : Layer 3
Mode : Joint stereo
Codec ID : 55
Codec ID/Hint : MP3
Duration : 1h 55mn
Bit rate mode : Constant
Bit rate : 192 Kbps
Channel(s) : 2 channels
Sampling rate : 48.0 KHz
Stream size : 158 MiB (11%)
Alignment : Aligned on interleaves
Interleave, duration : 42 ms (1.00 video frame)
Interleave, preload duration : 504 ms
-

скрытый текст


--

_________________
Показать сообщения:    

Текущее время: Сегодня 10:21

Часовой пояс: GMT



Вы не можете начинать темы
Вы не можете отвечать на сообщения
Вы не можете редактировать свои сообщения
Вы не можете удалять свои сообщения
Вы не можете голосовать в опросах
Вы не можете прикреплять файлы к сообщениям
Вы не можете скачивать файлы