Важное объявление!
У Нас Все раздачи мультитрекерные, при нуле пиров в релизах, можете смело вставать на закачку!
 
Автор Сообщение

Vanya_o3

[Профиль] [ЛС]

Вечный зов (19 серий)
Год выпуска: 1973-1983
Жанр: драма, киноэпопея
Продолжительность: 22:09:30
(01:05:15 + 01:10:57 + 01:16:27 + 01:05:51 + 01:04:11 + 01:17:45 + 01:05:17 + 01:09:40 + 01:04:07 + 01:06:28 + 01:08:15 + 01:19:57 + 01:04:43 + 01:05:58 + 01:06:22 + 01:08:52 + 01:04:20 + 01:23:30 + 01:21:48)-Режиссеры: Владимир Краснопольский, Валерий Усков-В ролях: Валерий Хлевинский, Вадим Спиридонов, Николай Иванов, Пётр Вельяминов, Иван Лапиков, Владлен Бирюков, Ада Роговцева, Тамара Сёмина, Андрей Мартынов, Николай Ерёменко старший, Ефим Копелян, Олег Басилашвили, Наталья Кустинская, Юрий Смирнов, Николай Дупак, Манефа Соболевская, Владимир Земляникин, Николай Лебедев, , Екатерина Жемчужная, Владимир Козел, Валерий Плотников, Елена Драпеко, Любовь Виролайнен, Евгений Карельских, Леонид Харитонов, Василий Мищенко, Владимир Заманский, Борис Битюков, Виктор Шульгин, Михаил Кокшенов-Описание: История семьи Савельевых, выходцев из далекого сибирского села, разворачивается на фоне исторических событий в России, охватывающих период с 1906 по 1960 годы. На долю семьи выпали три войны, революция, становление нового строя и все драматические события, которые принес двадцатый век. Жизнь постоянно требует от героев выбора между любовью и ненавистью. В центре повествования – три брата Савельевых: старший - Антон, средний - Фёдор и младший - Иван.
-Доп. информация: По одноимённому роману Анатолия Иванова.
Сценарий: Анатолий Иванов, Константин Исаев
Композитор: Леонид Афанасьев
-Размер файлов выбран таким образом, чтобы весь сериал без потерь вместился на три болванки DVD5.В начале файла присутствует 10-секундный ролик RG Doc.Films с указанием автора рипа.-Качество видео: SATRip-AVC AVI-рип
Формат видео: MKV
Видео:
Фильм 1 - 704x528 (1.33:1), 25 fps, x264 ~1300 kbps avg, 0.14 bit/pixel
Фильм 2 - 704x528 (1.33:1), 25 fps, x264 ~1070 kbps avg, 0.12 bit/pixel
Аудио: 48 kHz, AC3, 2 ch, ~192.00 kbps avg-ВНИМАНИЕ! Данный формат пока еще воспроизводится не всеми DVD проигрывателями.-

MediaInfo / x264 log

Фильм I

MediaInfo

Format : Matroska
File size : 695 MiB
Duration : 1h 5mn
Overall bit rate : 1 488 Kbps
Encoded date : UTC 2011-01-06 09:35:36
Writing application : mkvmerge v4.4.0 ('Die Wiederkehr') сборка от Dec 25 2010 23:32:50
Writing library : libebml v1.0.0 + libmatroska v1.0.0
Video
ID : 1
Format : AVC
Format/Info : Advanced Video Codec
Format profile : High@L3.1
Format settings, CABAC : Yes
Format settings, ReFrames : 11 frames
Muxing mode : Header stripping
Codec ID : V_MPEG4/ISO/AVC
Duration : 1h 5mn
Bit rate : 1 295 Kbps
Width : 704 pixels
Height : 528 pixels
Display aspect ratio : 4:3
Frame rate : 25.000 fps
Color space : YUV
Chroma subsampling : 4:2:0
Bit depth : 8 bits
Scan type : Progressive
Bits/(Pixel*Frame) : 0.139
Stream size : 591 MiB (85%)
Title : Rip by iriston
Writing library : x264 core 108 r1790 8eaf8a6
Encoding settings : cabac=1 / ref=11 / deblock=1:-2:-1 / analyse=0x3:0x133 / me=umh / subme=10 / psy=1 / psy_rd=1.00:0.20 / mixed_ref=1 / me_range=16 / chroma_me=1 / trellis=2 / 8x8dct=1 / cqm=0 / deadzone=21,11 / fast_pskip=0 / chroma_qp_offset=-3 / threads=3 / sliced_threads=0 / nr=0 / decimate=0 / interlaced=0 / constrained_intra=0 / bframes=8 / b_pyramid=2 / b_adapt=2 / b_bias=0 / direct=3 / weightb=1 / open_gop=0 / weightp=2 / keyint=250 / keyint_min=25 / scenecut=40 / intra_refresh=0 / rc_lookahead=60 / rc=2pass / mbtree=1 / bitrate=1295 / ratetol=1.0 / qcomp=0.60 / qpmin=10 / qpmax=51 / qpstep=4 / cplxblur=20.0 / qblur=0.5 / ip_ratio=1.40 / aq=2:1.00
Language : Russian
Matrix coefficients : BT.470-6 System B, BT.470-6 System G, BT.601-6 625, BT.1358 625, BT.1700 625 PAL, BT.1700 625 SECAM, IEC 61966-2-4 601
Audio
ID : 2
Format : AC-3
Format/Info : Audio Coding 3
Mode extension : CM (complete main)
Muxing mode : Header stripping
Codec ID : A_AC3
Duration : 1h 5mn
Bit rate mode : Constant
Bit rate : 192 Kbps
Channel(s) : 2 channels
Channel positions : Front: L R
Sampling rate : 48.0 KHz
Bit depth : 16 bits
Compression mode : Lossy
Stream size : 89.6 MiB (13%)
Language : Russian

x264 log

avs [info]: 704x528p 1:1 @ 25/1 fps (cfr)
x264 [info]: using SAR=1/1
x264 [info]: using cpu capabilities: MMX2 SSE2Fast SSSE3 Cache64
x264 [info]: profile High, level 3.1
x264 [info]: frame I:476 Avg QP:17.17 size: 41694
x264 [info]: frame P:23718 Avg QP:20.21 size: 16814
x264 [info]: frame B:73682 Avg QP:24.22 size: 2922
x264 [info]: consecutive B-frames: 2.1% 2.7% 12.4% 26.4% 24.5% 30.7% 1.1% 0.1% 0.0%
x264 [info]: mb I I16..4: 7.9% 77.9% 14.2%
x264 [info]: mb P I16..4: 1.8% 11.4% 1.3% P16..4: 51.7% 22.9% 7.4% 0.5% 0.6% skip: 2.4%
x264 [info]: mb B I16..4: 0.0% 0.6% 0.1% B16..8: 42.0% 7.3% 1.5% direct: 3.4% skip:45.2% L0:38.1% L1:45.0% BI:16.9%
x264 [info]: 8x8 transform intra:79.0% inter:65.9%
x264 [info]: direct mvs spatial:99.8% temporal:0.2%
x264 [info]: coded y,uvDC,uvAC intra: 85.3% 58.6% 22.4% inter: 20.2% 11.6% 2.9%
x264 [info]: i16 v,h,dc,p: 22% 17% 17% 44%
x264 [info]: i8 v,h,dc,ddl,ddr,vr,hd,vl,hu: 14% 10% 7% 9% 11% 12% 12% 13% 13%
x264 [info]: i4 v,h,dc,ddl,ddr,vr,hd,vl,hu: 12% 10% 4% 8% 13% 14% 13% 12% 13%
x264 [info]: i8c dc,h,v,p: 42% 26% 21% 11%
x264 [info]: Weighted P-Frames: Y:20.7% UV:8.2%
x264 [info]: ref P L0: 48.3% 12.8% 14.7% 6.5% 4.8% 3.7% 3.1% 1.8% 1.5% 1.3% 1.1% 0.3% 0.0%
x264 [info]: ref B L0: 88.4% 7.3% 1.8% 0.8% 0.6% 0.4% 0.4% 0.2% 0.1% 0.1%
x264 [info]: ref B L1: 97.4% 2.6%
x264 [info]: kb/s:1295.31
-

Фильм II

MediaInfo

Format : Matroska
File size : 584 MiB
Duration : 1h 4mn
Overall bit rate : 1 263 Kbps
Encoded date : UTC 2011-01-08 09:10:19
Writing application : mkvmerge v4.4.0 ('Die Wiederkehr') сборка от Dec 25 2010 23:32:50
Writing library : libebml v1.0.0 + libmatroska v1.0.0
Video
ID : 1
Format : AVC
Format/Info : Advanced Video Codec
Format profile : High@L3.1
Format settings, CABAC : Yes
Format settings, ReFrames : 11 frames
Muxing mode : Header stripping
Codec ID : V_MPEG4/ISO/AVC
Duration : 1h 4mn
Bit rate : 1 070 Kbps
Width : 704 pixels
Height : 528 pixels
Display aspect ratio : 4:3
Frame rate : 25.000 fps
Color space : YUV
Chroma subsampling : 4:2:0
Bit depth : 8 bits
Scan type : Progressive
Bits/(Pixel*Frame) : 0.115
Stream size : 484 MiB (83%)
Title : Rip by iriston
Writing library : x264 core 112 r1834 a51816a
Encoding settings : cabac=1 / ref=11 / deblock=1:-2:-1 / analyse=0x3:0x133 / me=umh / subme=10 / psy=1 / psy_rd=1.00:0.20 / mixed_ref=1 / me_range=16 / chroma_me=1 / trellis=2 / 8x8dct=1 / cqm=0 / deadzone=21,11 / fast_pskip=0 / chroma_qp_offset=-3 / threads=12 / sliced_threads=0 / nr=0 / decimate=0 / interlaced=0 / constrained_intra=0 / bframes=8 / b_pyramid=2 / b_adapt=2 / b_bias=0 / direct=3 / weightb=1 / open_gop=0 / weightp=2 / keyint=250 / keyint_min=25 / scenecut=40 / intra_refresh=0 / rc_lookahead=60 / rc=2pass / mbtree=1 / bitrate=1070 / ratetol=1.0 / qcomp=0.60 / qpmin=0 / qpmax=51 / qpstep=4 / cplxblur=20.0 / qblur=0.5 / ip_ratio=1.40 / aq=2:1.00
Language : Russian
Matrix coefficients : BT.470-6 System B, BT.470-6 System G, BT.601-6 625, BT.1358 625, BT.1700 625 PAL, BT.1700 625 SECAM, IEC 61966-2-4 601
Audio
ID : 2
Format : AC-3
Format/Info : Audio Coding 3
Mode extension : CM (complete main)
Muxing mode : Header stripping
Codec ID : A_AC3
Duration : 1h 4mn
Bit rate mode : Constant
Bit rate : 192 Kbps
Channel(s) : 2 channels
Channel positions : Front: L R
Sampling rate : 48.0 KHz
Bit depth : 16 bits
Compression mode : Lossy
Stream size : 88.9 MiB (15%)
Language : Russian

x264 log

avs [info]: 704x528p 1:1 @ 25/1 fps (cfr)
x264 [info]: using SAR=1/1
x264 [info]: using cpu capabilities: MMX2 SSE2Fast SSSE3 FastShuffle SSE4.2
x264 [info]: profile High, level 3.1
x264 [info]: frame I:540 Avg QP:17.76 size: 38504
x264 [info]: frame P:23547 Avg QP:21.25 size: 13885
x264 [info]: frame B:72988 Avg QP:25.65 size: 2348
x264 [info]: consecutive B-frames: 2.5% 2.2% 12.3% 24.6% 24.1% 33.0% 1.0% 0.2% 0.1%
x264 [info]: mb I I16..4: 9.7% 77.3% 13.0%
x264 [info]: mb P I16..4: 2.6% 10.2% 1.0% P16..4: 53.5% 21.4% 6.7% 0.3% 0.5% skip: 3.8%
x264 [info]: mb B I16..4: 0.1% 0.7% 0.1% B16..8: 39.0% 5.7% 1.2% direct: 2.7% skip:50.6% L0:39.3% L1:47.9% BI:12.8%
x264 [info]: 8x8 transform intra:75.6% inter:65.0%
x264 [info]: direct mvs spatial:99.4% temporal:0.6%
x264 [info]: coded y,uvDC,uvAC intra: 76.9% 57.2% 19.0% inter: 17.5% 10.9% 2.6%
x264 [info]: i16 v,h,dc,p: 25% 18% 15% 42%
x264 [info]: i8 v,h,dc,ddl,ddr,vr,hd,vl,hu: 12% 11% 7% 9% 11% 12% 13% 12% 14%
x264 [info]: i4 v,h,dc,ddl,ddr,vr,hd,vl,hu: 11% 11% 4% 8% 13% 13% 15% 11% 14%
x264 [info]: i8c dc,h,v,p: 41% 28% 21% 10%
x264 [info]: Weighted P-Frames: Y:14.9% UV:5.3%
x264 [info]: ref P L0: 50.7% 15.2% 14.8% 5.6% 3.9% 3.0% 2.4% 1.4% 1.1% 0.9% 0.7% 0.2% 0.0%
x264 [info]: ref B L0: 88.9% 6.7% 1.8% 0.8% 0.6% 0.4% 0.3% 0.2% 0.1% 0.1%
x264 [info]: ref B L1: 97.3% 2.7%
x264 [info]: kb/s:1069.52
-- -
 
Показать сообщения:    

Текущее время: Сегодня 13:40

Часовой пояс: GMT



Вы не можете начинать темы
Вы не можете отвечать на сообщения
Вы не можете редактировать свои сообщения
Вы не можете удалять свои сообщения
Вы не можете голосовать в опросах
Вы не можете прикреплять файлы к сообщениям
Вы не можете скачивать файлы