Важное объявление!
У Нас Все раздачи мультитрекерные, при нуле пиров в релизах, можете смело вставать на закачку!
 
Автор Сообщение

HUNTER

Стаж:
4 года 4 месяца
Сообщений:
56790

Репутация: 101

[+] [-]
Вне форума [Профиль] [ЛС]

Вечер в мюзик-холле / A Night in the Show
Страна: США
Жанр: короткометражка, комедия
Год выпуска: 1915
Продолжительность: 00:25:06
Перевод: Профессиональный (одноголосый закадровый)
Cубтитры: русские
Оригинальная аудиодорожка: музыкальное сопровождение-Режиссер: Чарльз Чаплин / Charles Chaplin
В ролях: Чарльз Чаплин, Филлис Аллен, Ллойд Бэйкон, Лоуренс А. Боус, Фрэнк Дж. Коулмэн, Фред Гудвинс, Чарльз Инсли, Бад Джеймисон, Джеймс Т. Келли
Описание: Щеголь мистер Пест является на представление в мюзик-холл. После некоторых поисков своего места он оказывается в первом ряду и вскоре начинает потасовку с дирижёром...
IMDb || КиноПоиск-Тип релиза: BDRemux 1080p [Limelight 1952 1080p Blu-ray AVC LPCM 1.0]
Контейнер: MKV
Видео: MPEG-4 AVC Video, 1920x1080 at 23.976 fps, 17998 kbps
Аудио#1: 48 kHz, AC3, 2.0 ch, 192 kbps
Аудио#2: 48 kHz, AC3, 2.0 ch, 192 kbps
Формат субтитров: softsub (SRT)
Сэмпл

Дополнительно

Отечественная дорожка с раздачи DVD9. Спасибо Dizi67.

MediaInfo

General
Unique ID : 241246631035101786729413638731381011442 (0xB57E693BD681C0BB802A617D4152F3F2)
Complete name : A.Night.in.the.Show.1915.Criterion.BDRemux. rutracker.mkv
Format : Matroska
Format version : Version 2
File size : 3.19 GiB
Duration : 25mn 6s
Overall bit rate mode : Variable
Overall bit rate : 18.2 Mbps
Movie name : Release for RuTracker
Writing application : mkvmerge v5.0.1 ('Es ist Sommer') built on Nov 6 2011 16:23:40
Writing library : libebml v1.2.2 + libmatroska v1.3.0
Video
ID : 1
Format : AVC
Format/Info : Advanced Video Codec
Format profile : High@L4.1
Format settings, CABAC : Yes
Format settings, ReFrames : 4 frames
Format settings, GOP : M=3, N=12
Codec ID : V_MPEG4/ISO/AVC
Duration : 25mn 6s
Bit rate mode : Variable
Bit rate : 17.4 Mbps
Maximum bit rate : 37.0 Mbps
Width : 1 920 pixels
Height : 1 080 pixels
Display aspect ratio : 16:9
Frame rate mode : Constant
Frame rate : 23.976 fps
Color space : YUV
Chroma subsampling : 4:2:0
Bit depth : 8 bits
Scan type : Progressive
Bits/(Pixel*Frame) : 0.351
Stream size : 3.06 GiB (96%)
Title : A.Night.in.the.Show.1915.Criterion.BDRemux. rutracker
Default : Yes
Forced : No
Audio #1
ID : 2
Format : AC-3
Format/Info : Audio Coding 3
Mode extension : CM (complete main)
Format settings, Endianness : Big
Codec ID : A_AC3
Duration : 25mn 6s
Bit rate mode : Constant
Bit rate : 192 Kbps
Channel(s) : 2 channels
Channel positions : Front: L R
Sampling rate : 48.0 KHz
Bit depth : 16 bits
Compression mode : Lossy
Stream size : 34.5 MiB (1%)
Language : Russian
Default : Yes
Forced : No
Audio #2
ID : 3
Format : AC-3
Format/Info : Audio Coding 3
Mode extension : CM (complete main)
Format settings, Endianness : Big
Codec ID : A_AC3
Duration : 25mn 6s
Bit rate mode : Constant
Bit rate : 192 Kbps
Channel(s) : 2 channels
Channel positions : Front: L R
Sampling rate : 48.0 KHz
Bit depth : 16 bits
Compression mode : Lossy
Stream size : 34.5 MiB (1%)
Default : No
Forced : No
Text
ID : 4
Format : UTF-8
Codec ID : S_TEXT/UTF8
Codec ID/Info : UTF-8 Plain Text
Language : Russian
Default : No
Forced : No

Скриншоты


_________________
Показать сообщения:    

Текущее время: Сегодня 10:57

Часовой пояс: GMT



Вы не можете начинать темы
Вы не можете отвечать на сообщения
Вы не можете редактировать свои сообщения
Вы не можете удалять свои сообщения
Вы не можете голосовать в опросах
Вы не можете прикреплять файлы к сообщениям
Вы не можете скачивать файлы