Важное объявление!
У Нас Все раздачи мультитрекерные, при нуле пиров в релизах, можете смело вставать на закачку!
 
Автор Сообщение

HUNTER

Стаж:
4 года 4 месяца
Сообщений:
56733

Репутация: 101

[+] [-]
Вне форума [Профиль] [ЛС]

Ветер крепчает-
Год выпуска: 2013
Страна: Япония
Жанры: драма, биография, исторический
Продолжительность: 02:01:32-Перевод:

  • русские субтитры от Reanimedia
  • английские субтитры с BD
    -Озвучка:
  • Полное дублирование от Reanimedia
    -Режиссер: Миядзаки Хаяо
    Сценарий: Миядзаки Хаяо
    Студия: -Описание: Мальчик Дзиро мечтает о полетах и красивых самолетах, способных обогнать ветер. Вот только пилотом ему не стать — он с рождения близорук. Но Дзиро не расстается с мечтой о небе, он начинает придумывать идеальный самолет и со временем становится одним из лучших авиаконструкторов мира. На пути к успеху он не только встретит много интересных людей, переживет Великое землетрясение в Токио и жестокие войны, но и обретет любовь своей жизни — прекрасную Наоко.- -

    Цитата:
    Цитата:

    • За русские субтитры спасибо Страник 2.0.
    • Подгон Русских субтитров и сборка релиза - Respector.
    -
    Качество: BDRip (CHD)
    Формат: MKV
    Тип видео: Без хардсаба
    Видео кодек: H.264
    Аудио кодек: DTS, AC3
    Видео: H.264 (8 bit), 4 810 Kbps, 1280x692, 23.976 fps
    Аудио 1: - AC3, 192 Kbps, 48KHz, 1ch [Дублированная Reanimedia] (внутри контейнера)
    Аудио 2: - DTS, 1509 Kbps, 48KHz, 1ch

    Знаете ли вы, что...
    • В качестве звуковых эффектов в фильме в основном используются человеческие голоса.
    • Главный герой Дзиро Хорикоси — это вымышленный персонаж, который был создан на основе смеси реальных историй жизни Тацуо Хори (Tatsuo Hori), автора одноименного рассказа, и Джиро Хорикоси (Jiro Horikoshi) — дизайнера самолета «Zero fighter». Название же фильма взято из перевода Хори цитаты из стихотворения Поля Валери «Le cimetiere marin».
    • Хаяо Миядзаки на Венецианском кинофестивале заявил, что это его последняя полнометражная работа.
    Подробные тех. данные
    General
    Unique ID : 247915958809556436646603421997420438084 (0xBA82E07AF6C0122B9A944BCFF0BEE244)
    Format : Matroska
    Format version : Version 4 / Version 2
    File size : 5.10 GiB
    Duration : 2h 6mn
    Overall bit rate : 5 773 Kbps
    Movie name : Respector
    Encoded date : UTC 2014-06-21 05:14:15
    Writing application : mkvmerge v6.8.0 ('Theme for Great Cities') 64bit built on Mar 2 2014 21:34:26
    Writing library : libebml v1.3.0 + libmatroska v1.4.1
    Video
    ID : 1
    Format : AVC
    Format/Info : Advanced Video Codec
    Format profile : High@L4.1
    Format settings, CABAC : Yes
    Format settings, ReFrames : 9 frames
    Codec ID : V_MPEG4/ISO/AVC
    Duration : 2h 6mn
    Bit rate : 4 810 Kbps
    Width : 1 280 pixels
    Height : 692 pixels
    Display aspect ratio : 1.85:1
    Frame rate mode : Constant
    Frame rate : 23.976 fps
    Color space : YUV
    Chroma subsampling : 4:2:0
    Bit depth : 8 bits
    Scan type : Progressive
    Bits/(Pixel*Frame) : 0.226
    Stream size : 4.15 GiB (81%)
    Writing library : x264 core 142 r2431 ac76440
    Encoding settings : cabac=1 / ref=9 / deblock=1:-3:-3 / analyse=0x3:0x113 / me=umh / subme=10 / psy=1 / psy_rd=1.00:0.05 / mixed_ref=1 / me_range=32 / chroma_me=1 / trellis=2 / 8x8dct=1 / cqm=0 / deadzone=21,11 / fast_pskip=0 / chroma_qp_offset=-2 / threads=18 / lookahead_threads=1 / sliced_threads=0 / nr=0 / decimate=1 / interlaced=0 / bluray_compat=0 / constrained_intra=0 / bframes=6 / b_pyramid=2 / b_adapt=2 / b_bias=0 / direct=3 / weightb=1 / open_gop=0 / weightp=2 / keyint=250 / keyint_min=23 / scenecut=40 / intra_refresh=0 / rc=2pass / mbtree=0 / bitrate=4810 / ratetol=1.0 / qcomp=0.70 / qpmin=0 / qpmax=69 / qpstep=4 / cplxblur=20.0 / qblur=0.5 / ip_ratio=1.40 / pb_ratio=1.30 / aq=2:0.90
    Language : Japanese
    Default : Yes
    Forced : No
    Audio #1
    ID : 2
    Format : AC-3
    Format/Info : Audio Coding 3
    Mode extension : CM (complete main)
    Format settings, Endianness : Big
    Codec ID : A_AC3
    Duration : 2h 6mn
    Bit rate mode : Constant
    Bit rate : 192 Kbps
    Channel(s) : 1 channel
    Channel positions : Front: C
    Sampling rate : 48.0 KHz
    Bit depth : 16 bits
    Compression mode : Lossy
    Stream size : 174 MiB (3%)
    Language : Russian
    Default : Yes
    Forced : Yes
    Audio #2
    ID : 3
    Format : DTS
    Format/Info : Digital Theater Systems
    Mode : 16
    Format settings, Endianness : Big
    Codec ID : A_DTS
    Duration : 2h 6mn
    Bit rate mode : Constant
    Bit rate : 768 Kbps
    Channel(s) : 1 channel
    Channel positions : Front: C
    Sampling rate : 48.0 KHz
    Bit depth : 24 bits
    Compression mode : Lossy
    Stream size : 695 MiB (13%)
    Language : Japanese
    Default : No
    Forced : No
    Text #1
    ID : 4
    Format : UTF-8
    Codec ID : S_TEXT/UTF8
    Codec ID/Info : UTF-8 Plain Text
    Language : Russian
    Default : No
    Forced : No
    Text #2
    ID : 5
    Format : UTF-8
    Codec ID : S_TEXT/UTF8
    Codec ID/Info : UTF-8 Plain Text
    Language : English
    Default : No
    Forced : No
    Menu
    00:00:00.000 : ja:00:00:00.000
    00:07:09.220 : ja:00:07:09.220
    00:12:52.689 : ja:00:12:52.689
    00:21:53.979 : ja:00:21:53.979
    00:30:06.471 : ja:00:30:06.471
    00:37:49.434 : ja:00:37:49.434
    00:44:57.528 : ja:00:44:57.528
    00:52:59.635 : ja:00:52:59.635
    01:00:33.755 : ja:01:00:33.755
    01:08:06.290 : ja:01:08:06.290
    01:17:12.920 : ja:01:17:12.920
    01:28:44.027 : ja:01:28:44.027
    01:35:20.548 : ja:01:35:20.548
    01:46:39.059 : ja:01:46:39.059
    01:52:45.884 : ja:01:52:45.884
    02:02:56.744 : ja:02:02:56.744
    Скриншоты

  • _________________
    Показать сообщения:    

    Текущее время: Сегодня 23:22

    Часовой пояс: GMT



    Вы не можете начинать темы
    Вы не можете отвечать на сообщения
    Вы не можете редактировать свои сообщения
    Вы не можете удалять свои сообщения
    Вы не можете голосовать в опросах
    Вы не можете прикреплять файлы к сообщениям
    Вы не можете скачивать файлы