Важное объявление!
У Нас Все раздачи мультитрекерные, при нуле пиров в релизах, можете смело вставать на закачку!
 
Автор Сообщение

HUNTER

Стаж:
4 года 4 месяца
Сообщений:
56853

Репутация: 101

[+] [-]
Вне форума [Профиль] [ЛС]

Веселый Париж : Gay Purr-ee«Vive La Fun!... Vive La Joy!... Vive La Judy!...»
Год выпуска: 1962
Страна: США
Жанр: мультфильм, мюзикл, комедия, семейный
Продолжительность: 01:25:02
Перевод:
Профессиональный (Многоголосый закадровый) - DVD Магия
Авторский (Одноголосый закадровый) - Дохалов
Авторский (Одноголосый закадровый) - Дольский
русские субтитры: отсутствуют-Режиссёр: Эйб Левитов : Abe Levitow-Роли озвучивали: Джуди Гарленд, Робер Гуле, Ред Баттонс, Пол Фрис, Гермиона Гингольд, Мэл Бланк, Мори Амстердам, Джоан Гарднер, Джули Беннетт, Турль Рейвенскрофт-Описание: Мурлыка — это деревенская кошечка, мечтающая о жизни в Париже. Веселое, наполненное песнями и очаровательной музыкой приключение начинается с похищения Мурлыки котами-преступниками. Дела ее плохи. Но отважные коты — Жан-Том и его верный друг Робеспьер — раскрывают преступный замысел и бросаются на выручку Мурлыке в надежде спасти похищенную кошечку.- релиз: -- Большое спасибо bora86bora за оцифровку Дохалова;
- Большое спасибо Nekontroliruemij_devil за оцифровку Дольского;
- Покупка, работа с WEB-DL и звуком -Azureus--Качество: WEB-DL 720p
Формат: MKV
Видео кодек: AVC
Аудио кодек: AC3 : FLAC
Видео: 1280x718 , 23,976 fps, ~4035 kbps avg, 0.183 bit/pixel
Аудио #1: [RUS] 48 kHz, AC3 Dolby Digital, 1 ch, ~128 kbps avg - MVO
Аудио #2: [RUS] 48 kHz, FLAC, 1 ch, ~383 kbps - AVO (Дохалов)
Аудио #3: [RUS] 48 kHz, FLAC, 1 ch, ~382 kbps - AVO (Дольский)
Аудио #4: [ENG] 48 kHz, AC3 Dolby Digital, 1 ch, ~192 kbps avg
субтитры: английские
навигация по главам: 26 глав (именные)

MediaInfo

Общее
Уникальный идентификатор : 185709266432317814396980280662093129210 (0x8BB64DC0696211F2A20E44D2B0AEE5FA)
Полное имя : D:\Im\Веселый Париж\Gay Purr-ee.1962.WEB-DL 720p.mkv
Формат : Matroska
Версия формата : Version 4 / Version 2
Размер файла : 3,00 Гбайт
Продолжительность : 1 ч. 25 м.
Режим общего битрейта : Переменный
Общий поток : 5054 Кбит/сек
Название фильма : Gay Purr-ee.1962.WEB-DL 720p -Azureus-
Дата кодирования : UTC 2015-04-09 16:22:26
Программа кодирования : mkvmerge v7.8.0 ('River Man') 32bit built on Mar 27 2015 16:18:02
Библиотека кодирования : libebml v1.3.1 + libmatroska v1.4.2
DURATION : 01:25:02.080000000
NUMBER_OF_FRAMES : 59790
NUMBER_OF_BYTES : 200423058
_STATISTICS_WRITING_APP : mkvmerge v7.8.0 ('River Man') 32bit built on Mar 27 2015 16:18:02
_STATISTICS_WRITING_DATE_UTC : 2015-04-09 16:22:26
_STATISTICS_TAGS : BPS DURATION NUMBER_OF_FRAMES NUMBER_OF_BYTES
Видео
Идентификатор : 1
Формат : AVC
Формат/Информация : Advanced Video Codec
Профиль формата : High@L3.1
Параметр CABAC формата : Нет
Параметр ReFrames формата : 2 кадра
Идентификатор кодека : V_MPEG4/ISO/AVC
Продолжительность : 1 ч. 25 м.
Ширина : 1280 пикселей
Высота : 718 пикселей
Соотношение сторон : 16:9
Частота кадров : 23,976 кадра/сек
Цветовое пространство : YUV
Субдискретизация насыщенности : 4:2:0
Битовая глубина : 8 бит
Тип развёртки : Прогрессивная
Язык : English
Default : Да
Forced : Нет
Основные цвета : BT.709-5, BT.1361, IEC 61966-2-4, SMPTE RP177
Характеристики трансфера : BT.709-5, BT.1361
Коэффициенты матрицы : BT.709-5, BT.1361, IEC 61966-2-4 709, SMPTE RP177
Аудио #1
Идентификатор : 2
Формат : AC-3
Формат/Информация : Audio Coding 3
Расширение режима : CM (complete main)
Идентификатор кодека : A_AC3
Продолжительность : 1 ч. 25 м.
Вид битрейта : Постоянный
Битрейт : 128 Кбит/сек
Каналы : 1 канал
Расположение каналов : Front: C
Частота : 48,0 КГц
Битовая глубина : 16 бит
Метод сжатия : С потерями
Размер потока : 77,9 Мбайт (3%)
Заголовок : MVO
Язык : Russian
Default : Да
Forced : Нет
Аудио #2
Идентификатор : 3
Формат : FLAC
Формат/Информация : Free Lossless Audio Codec
Идентификатор кодека : A_FLAC
Продолжительность : 1 ч. 25 м.
Вид битрейта : Переменный
Каналы : 1 канал
Частота : 48,0 КГц
Битовая глубина : 16 бит
Заголовок : AVO - Дохалов
Библиотека кодирования : libFLAC 1.2.1 (UTC 2007-09-17)
Язык : Russian
Default : Нет
Forced : Нет
Аудио #3
Идентификатор : 4
Формат : FLAC
Формат/Информация : Free Lossless Audio Codec
Идентификатор кодека : A_FLAC
Продолжительность : 1 ч. 25 м.
Вид битрейта : Переменный
Каналы : 1 канал
Частота : 48,0 КГц
Битовая глубина : 16 бит
Заголовок : AVO - Дольский
Библиотека кодирования : libFLAC 1.2.1 (UTC 2007-09-17)
Язык : Russian
Default : Нет
Forced : Нет
Аудио #4
Идентификатор : 5
Формат : AC-3
Формат/Информация : Audio Coding 3
Расширение режима : CM (complete main)
Идентификатор кодека : A_AC3
Продолжительность : 1 ч. 25 м.
Вид битрейта : Постоянный
Битрейт : 192 Кбит/сек
Каналы : 1 канал
Расположение каналов : Front: C
Частота : 48,0 КГц
Битовая глубина : 16 бит
Метод сжатия : С потерями
Размер потока : 117 Мбайт (4%)
Заголовок : ENG
Язык : English
Default : Нет
Forced : Нет
Текст
Идентификатор : 6
Формат : UTF-8
Идентификатор кодека : S_TEXT/UTF8
Идентификатор кодека/Информация : UTF-8 Plain Text
Заголовок : Eng Sub
Язык : English
Default : Нет
Forced : Нет
Меню
00:00:00.000 : en:Credits
00:03:19.000 : en:Mewsette
00:05:24.000 : en:Target: Mouse
00:08:43.000 : en:Take My Hand, Paree
00:13:36.000 : en:Mademoiselle Feline
00:17:41.000 : en:The Road To Paris
00:20:42.000 : en:Roses Red, Violets Blue
00:23:09.000 : en:Meowrice
00:25:14.000 : en:Hangers-on
00:27:26.000 : en:Sister Dearest
00:29:19.000 : en:The Money Cat
00:32:35.000 : en:Doing The Town
00:37:04.000 : en:The Horse Won't Talk
00:40:58.000 : en:Cats For A Fee
00:44:34.000 : en:Bubbles
00:48:42.000 : en:Shanghaied
00:50:38.000 : en:Little Drops Of Rain
00:54:26.000 : en:Portraits Of Mewsette
00:58:59.000 : en:Paris...or Pittsburgh
01:03:31.000 : en:Escape
01:08:35.000 : en:Klondike Cats
01:10:52.000 : en:Paris Is A Lonely Town
01:14:57.000 : en:On Her Tail
01:18:20.000 : en:Meowrice The Mouse
01:21:07.000 : en:Surprise Package
01:23:06.000 : en:Mewsette Reprise
____________________________________________
Стою на раздаче до 5 дней.
Просьба скачавшим как можно дольше не покидать раздачу!
ВСЕМ ПРИЯТНОГО ПРОСМОТРА!_________________________________________

_________________
Показать сообщения:    

Текущее время: Сегодня 09:47

Часовой пояс: GMT



Вы не можете начинать темы
Вы не можете отвечать на сообщения
Вы не можете редактировать свои сообщения
Вы не можете удалять свои сообщения
Вы не можете голосовать в опросах
Вы не можете прикреплять файлы к сообщениям
Вы не можете скачивать файлы
Наши партнеры: интернет магазин Ивановского трикотажа textilla.ru