Важное объявление!
У Нас Все раздачи мультитрекерные, при нуле пиров в релизах, можете смело вставать на закачку!
 
Автор Сообщение

HUNTER

Стаж:
4 года 4 месяца
Сообщений:
56829

Репутация: 101

[+] [-]
Вне форума [Профиль] [ЛС]

ВеселушкаBreezy-
Страна: США
Жанр: Драма, мелодрама
Год выпуска: 1973
Продолжительность: 01:46:23
Перевод: Профессиональный (дублированный)
Перевод 2: Профессиональный (двухголосый закадровый)
Cубтитры: русские, английские (SDH)
Оригинальная аудиодорожка: английский
Режиссер: Клинт Иствуд / Clint Eastwood
В ролях: Уильям Холден, Кэй Ленц, Роджер С. Кармел, Марж Дюсэй, Джоан Хотчкис, Джэми Смит-Джексон, Норман Бартольд, Линн Борден, Шелли Моррисон, Дэннис Оливери
Описание: Пронзительная история любви между прожженым дельцом по продаже дорогой недвижимости и юной хиппи с плохонькой гитарой за плечами. Каждый из них одинок, но по своему, Бризи открыта и любит людей, не ожидая любви в ответ, Фрэнк любит лишь себя и дарит любовь своим женщинам только когда ему это нужно. Бризи научит Фрэнка любви, а Фрэнк подарит ей океан под названием жизнь.

MPAA: R - Лицам до 17 лет обязательно присутствие взрослого-
Автор рипа: Vikosol
Тип релиза: BDRip 720p [Breezy.1973.COMPLETE.BLURAY-PCH]
Контейнер: MKV
Видео: AVC, 1280x694 (16:9), 9298 kbps, 23,976 fps, 0,437 bpp
Аудио №1: русский / DTS / 2.0 / 48 kHz / 448 kbps / 24 bit |Blu-Ray EUR|
Аудио №2: русский / AC3 / 2.0 / 48 kHz / 192 kbps / 16 bit |DVO|
Аудио №3: английский / DTS / 2.0 / 48 kHz / 1510 kbps / 24 bit
Навигация по главам: есть
Формат субтитров: softsub (SRT)

Source vs Encode

X264 iNFO

Код:
---[Information] [10.08.2014 7:08:32] x264 [info]: frame I:873   Avg QP:15.71  size:130332
---[Information] [10.08.2014 7:08:32] x264 [info]: frame P:28098 Avg QP:16.95  size: 81252
---[Information] [10.08.2014 7:08:32] x264 [info]: frame B:124077 Avg QP:18.86  size: 41961
---[Information] [10.08.2014 7:08:32] x264 [info]: consecutive B-frames:  0.8%  0.6%  2.0% 12.4% 18.8% 47.9%  9.7%  4.7%  1.6%  1.1%  0.4%

MediaInfo

Код:
Format                           : Matroska
Format version                   : Version 4 / Version 2
File size                        : 8.68 GiB
Duration                         : 1h 46mn
Overall bit rate                 : 11.7 Mbps
Encoded date                     : UTC 2014-08-10 17:35:06
Writing application              : mkvmerge v6.8.0 ('Theme for Great Cities') 64bit built on Mar  2 2014 21:34:26
Writing library                  : libebml v1.3.0 + libmatroska v1.4.1
Video
ID                               : 1
Format                           : AVC
Format/Info                      : Advanced Video Codec
Format profile                   : High@L4.1
Format settings, CABAC           : Yes
Format settings, ReFrames        : 9 frames
Codec ID                         : V_MPEG4/ISO/AVC
Duration                         : 1h 46mn
Bit rate                         : 9 298 Kbps
Width                            : 1 280 pixels
Height                           : 694 pixels
Display aspect ratio             : 16:9
Frame rate                       : 23.976 fps
Color space                      : YUV
Chroma subsampling               : 4:2:0
Bit depth                        : 8 bits
Scan type                        : Progressive
Bits/(Pixel*Frame)               : 0.437
Stream size                      : 6.91 GiB (80%)
Writing library                  : x264 core 142 r2453kMod ea0ca51
Encoding settings                : cabac=1 / ref=9 / deblock=1:-3:-3 / analyse=0x3:0x113 / me=umh / subme=11 / psy=1 / fade_compensate=0.00 / psy_rd=1.00:0.00 / mixed_ref=1 / me_range=32 / chroma_me=1 / trellis=2 / 8x8dct=1 / cqm=0 / deadzone=21,11 / fast_pskip=0 / chroma_qp_offset=-2 / threads=6 / lookahead_threads=1 / sliced_threads=0 / nr=0 / decimate=0 / interlaced=0 / bluray_compat=0 / constrained_intra=0 / fgo=0 / bframes=10 / b_pyramid=2 / b_adapt=2 / b_bias=0 / direct=3 / weightb=1 / open_gop=0 / weightp=2 / keyint=240 / keyint_min=23 / scenecut=40 / intra_refresh=0 / rc_lookahead=60 / rc=crf / mbtree=0 / crf=16.8000 / qcomp=0.70 / qpmin=0 / qpmax=69 / qpstep=4 / vbv_maxrate=62500 / vbv_bufsize=78125 / crf_max=0.0 / nal_hrd=none / filler=0 / ip_ratio=1.40 / pb_ratio=1.30 / aq=1:0.80
Language                         : English
Color primaries                  : BT.709
Transfer characteristics         : BT.709
Matrix coefficients              : BT.709
Audio #1
ID                               : 2
Format                           : DTS
Format/Info                      : Digital Theater Systems
Codec ID                         : A_DTS
Duration                         : 1h 46mn
Bit rate mode                    : Constant
Bit rate                         : 448 Kbps
Channel(s)                       : 2 channels
Channel positions                : Front: L R
Sampling rate                    : 48.0 KHz
Bit depth                        : 24 bits
Compression mode                 : Lossy
Stream size                      : 341 MiB (4%)
Title                            : Blu-Ray EUR
Language                         : Russian
Audio #2
ID                               : 3
Format                           : AC-3
Format/Info                      : Audio Coding 3
Mode extension                   : CM (complete main)
Codec ID                         : A_AC3
Duration                         : 1h 46mn
Bit rate mode                    : Constant
Bit rate                         : 192 Kbps
Channel(s)                       : 2 channels
Channel positions                : Front: L R
Sampling rate                    : 48.0 KHz
Bit depth                        : 16 bits
Compression mode                 : Lossy
Stream size                      : 146 MiB (2%)
Title                            : DVO
Language                         : Russian
Audio #3
ID                               : 4
Format                           : DTS
Format/Info                      : Digital Theater Systems
Codec ID                         : A_DTS
Duration                         : 1h 46mn
Bit rate mode                    : Constant
Bit rate                         : 1 510 Kbps
Channel(s)                       : 2 channels
Channel positions                : Front: L R
Sampling rate                    : 48.0 KHz
Bit depth                        : 24 bits
Compression mode                 : Lossy
Stream size                      : 1.12 GiB (13%)
Language                         : English
Text #1
ID                               : 5
Format                           : UTF-8
Codec ID                         : S_TEXT/UTF8
Codec ID/Info                    : UTF-8 Plain Text
Language                         : Russian
Text #2
ID                               : 6
Format                           : UTF-8
Codec ID                         : S_TEXT/UTF8
Codec ID/Info                    : UTF-8 Plain Text
Title                            : SDH
Language                         : English
Menu
00:00:00.000                     : :Chapter 01
00:05:51.559                     : :Chapter 02
00:09:03.084                     : :Chapter 03
00:18:30.359                     : :Chapter 04
00:31:42.859                     : :Chapter 05
00:37:50.393                     : :Chapter 06
00:44:20.282                     : :Chapter 07
00:50:41.830                     : :Chapter 08
00:56:42.273                     : :Chapter 09
01:01:34.649                     : :Chapter 10
01:06:19.767                     : :Chapter 11
01:14:38.640                     : :Chapter 12
01:20:31.952                     : :Chapter 13
01:25:32.418                     : :Chapter 14
01:30:17.370                     : :Chapter 15
01:35:22.842                     : :Chapter 16
01:41:41.220                     : :Chapter 17
01:45:25.110                     : :Chapter 18
01:46:23.126                     : :Chapter 19

Скриншоты

Цитата:
Дорога №2 взята с этой раздачи thx: bm11

_________________
Показать сообщения:    

Текущее время: Сегодня 12:39

Часовой пояс: GMT



Вы не можете начинать темы
Вы не можете отвечать на сообщения
Вы не можете редактировать свои сообщения
Вы не можете удалять свои сообщения
Вы не можете голосовать в опросах
Вы не можете прикреплять файлы к сообщениям
Вы не можете скачивать файлы