Важное объявление!
У Нас Все раздачи мультитрекерные, при нуле пиров в релизах, можете смело вставать на закачку!
 
Автор Сообщение

HUNTER

Стаж:
4 года 4 месяца
Сообщений:
56808

Репутация: 101

[+] [-]
Вне форума [Профиль] [ЛС]

Верный шанс / Выстрел в банке / Bank Shot
«Criminal Masterminds? Don't Bank On It.»
Страна: США
Жанр: комедия, криминал
Год выпуска: 1974
Продолжительность: 01:23:36
Перевод: Профессиональный (двухголосый закадровый) НТВ+
Cубтитры: нет
Оригинальная аудиодорожка: английский-Режиссер: Гауэр Чемпион / Gower Champion-В ролях: Джордж К. Скотт, Джоанна Кэссиди, Соррел Бук, Дж. Вуд, Клифтон Джеймс, Боб Бэлабан, Биби Остервальд, Фрэнк МакРей, Дон Кэлфа, Харви Эванс-Описание: Главари банды воров, затеяли ограбить банк, благо представился случай, что банк временно был перенесен в небольшой мобильный дом, а само здание банка построят заново, но что делать если лучший специалист по ограблению Джордж Скотт находится в тюрьме, они помогают ему совершить побег. Скотт сбегает из тюрьмы, с головокружительными погонями прямо с карьера на строительной технике, он мчит к месту встречи с девушкой, где он переодевается в байкера и уезжает на мотоцикле. Скотт решил не мелочится, зачем ему мешки с деньгами, когда можно взять сразу банк целиком, при помощи конструкции подъемника, в глухую ночь поднимает этот дом-банк и увозит его на стоянку трейлеров.-Релиз:
| Рип от SbR-Качество видео: BDRip
Формат видео: MKV
Видео: 1280x550 at 23.976 fps, x264@L4.1, ~9892 kbps avg
Аудио 1: Russian: 48 kHz, AC3, 2/0 (L,R) ch, ~192 kbps avg |Двухголосый закадровый, НТВ+|
Аудио 2: English: 48 kHz/16-bit, FLAC 2.0, 326 kbps- -Цитата:
Цитата:

  • Сохранены оригинальные чаптеры как на Blu-ray.

MediaInfo

Код:
Format                      : Matroska
Format version              : Version 4 / Version 2
File size                   : 6.08 GiB
Duration                    : 1h 23mn
Overall bit rate mode       : Variable
Overall bit rate            : 10.4 Mbps
Encoded date                : UTC 2016-08-07 14:53:39
Writing application         : mkvmerge v8.3.0 ('Over the Horizon') 32bit
Writing library             : libebml v1.3.1 + libmatroska v1.4.2
Cover                       : Yes
Attachments                 : cover.jpg
Video
ID                          : 1
Format                      : AVC
Format/Info                 : Advanced Video Codec
Format profile              : High@L4.1
Format settings, CABAC      : Yes
Format settings, ReFrames   : 11 frames
Codec ID                    : V_MPEG4/ISO/AVC
Duration                    : 1h 23mn
Bit rate                    : 9 893 Kbps
Width                       : 1 280 pixels
Height                      : 550 pixels
Display aspect ratio        : 2.35:1
Frame rate mode             : Constant
Frame rate                  : 23.976 (23976/1000) fps
Color space                 : YUV
Chroma subsampling          : 4:2:0
Bit depth                   : 8 bits
Scan type                   : Progressive
Bits/(Pixel*Frame)          : 0.586
Stream size                 : 5.78 GiB (95%)
Writing library             : x264 core 148 r2705+54 9f484c1 t_mod_Custom [8-bit@all X86_64]
Encoding settings           : cabac=1 / ref=11 / deblock=1:-3:-3 / analyse=0x3:0x133 / me=umh / subme=10 / psy=1 / fade_compensate=0.00 / psy_rd=1.00:0.05 / mixed_ref=1 / me_range=32 / chroma_me=1 / trellis=2 / 8x8dct=1 / cqm=0 / deadzone=21,11 / fast_pskip=0 / chroma_qp_offset=-3 / threads=6 / lookahead_threads=1 / sliced_threads=0 / nr=0 / decimate=1 / interlaced=0 / bluray_compat=0 / constrained_intra=0 / fgo=0 / bframes=8 / b_pyramid=2 / b_adapt=2 / b_bias=0 / direct=3 / weightb=1 / open_gop=0 / weightp=2 / keyint=250 / keyint_min=23 / scenecut=40 / intra_refresh=0 / rc_lookahead=60 / rc=crf / mbtree=0 / crf=17.0000 / qcomp=0.65 / qpmin=0:0:0 / qpmax=69:69:69 / qpstep=4 / vbv_maxrate=62500 / vbv_bufsize=78125 / crf_max=0.0 / nal_hrd=none / filler=0 / ip_ratio=1.30 / pb_ratio=1.20 / aq=1:0.67 / aq-sensitivity=10.00 / aq-factor=1.00:1.00:1.00 / aq2=1:0.60 / aq2-sensitivity=15.00 / aq2-factor=1.00:1.00:1.00 / aq3=1:[0.50:0.50]:[0.50:0.50]:[0.50:0.50]:[0.50:0.50] / aq3-sensitivity=10.00 / aq3-factor=[1.00:1.00]:[1.00:1.00]:[1.00:1.00] / aq3-boundary=192:64:24
Language                    : English
Default                     : Yes
Forced                      : No
Color range                 : Limited
Color primaries             : BT.709
Transfer characteristics    : BT.709
Matrix coefficients         : BT.709
Audio #1
ID                          : 2
Format                      : AC-3
Format/Info                 : Audio Coding 3
Mode extension              : CM (complete main)
Format settings, Endianness : Big
Codec ID                    : A_AC3
Duration                    : 1h 23mn
Bit rate mode               : Constant
Bit rate                    : 192 Kbps
Channel(s)                  : 2 channels
Channel positions           : Front: L R
Sampling rate               : 48.0 KHz
Frame rate                  : 31.250 fps (1536 spf)
Compression mode            : Lossy
Stream size                 : 115 MiB (2%)
Title                       : Двухголосый закадровый, НТВ+
Language                    : Russian
Default                     : Yes
Forced                      : No
Audio #2
ID                          : 3
Format                      : FLAC
Format/Info                 : Free Lossless Audio Codec
Codec ID                    : A_FLAC
Duration                    : 1h 23mn
Bit rate mode               : Variable
Bit rate                    : 326 Kbps
Channel(s)                  : 2 channels
Channel positions           : Front: L R
Sampling rate               : 48.0 KHz
Frame rate                  : 11.719 fps (4096 spf)
Bit depth                   : 16 bits
Stream size                 : 195 MiB (3%)
Writing library             : libFLAC 1.2.1 (UTC 2007-09-17)
Language                    : English
Default                     : No
Forced                      : No
Menu
00:00:00.000                : en:00:00:00.000
00:08:08.154                : en:00:08:08.154
00:17:08.277                : en:00:17:08.277
00:29:57.962                : en:00:29:57.962
00:39:01.130                : en:00:39:01.130
00:48:25.027                : en:00:48:25.027
01:00:42.221                : en:01:00:42.221
01:13:38.413                : en:01:13:38.413

Скриншоты


_________________
Показать сообщения:    

Текущее время: Сегодня 09:54

Часовой пояс: GMT



Вы не можете начинать темы
Вы не можете отвечать на сообщения
Вы не можете редактировать свои сообщения
Вы не можете удалять свои сообщения
Вы не можете голосовать в опросах
Вы не можете прикреплять файлы к сообщениям
Вы не можете скачивать файлы