Важное объявление!
У Нас Все раздачи мультитрекерные, при нуле пиров в релизах, можете смело вставать на закачку!
 
Автор Сообщение

HUNTER

Стаж:
4 года 4 месяца
Сообщений:
56719

Репутация: 101

[+] [-]
Вне форума [Профиль] [ЛС]

Верные ходы / Все верные ходы / All The Right Moves
Страна: США
Жанр: мелодрама, драма, спорт
Год выпуска: 1983
Продолжительность: 01:24:33
Перевод: Профессиональный (многоголосый закадровый) 1 канал
Cубтитры: нет
Оригинальная аудиодорожка: нет
Режиссер: Майкл Чэпмен / Michael Chapman
В ролях: Том Круз, Крэйг Т. Нельсон, Лиа Томпсон, Чарльз Чоффи, Гари Грэхэм, Пол Карафотс, Крис Пенн, Сэнди Фэйзон, Джеймс А. Баффико, Мел Уинклер, Уолтер Бриггс, Джорж Бетор, Леон Робинсон, Джонас Си.Миллер, Кейт Форд, Пейдж Прайс
Описание: Звезда местной школьной команды по футболу Стефан Джорджевич живет мечтой о том, чтобы в один прекрасный день вырваться из родного захолустного городишки в Западной Пенсильвании. Но у не менее амбициозного тренера Никерсона свои планы на будущее юноши, поэтому дорога к мечте обещает быть довольно тернистой. А тут еще и внезапно вспыхнувшее чувство к красавице Лизе серьезно осложняет дело.
Доп. информация: Наполнение кадра немного больше, чем на BD http://screenshotcomparison.com/comparison/90540
Сэмпл: http://multi-up.com/998111
Тип релиза: HDTV 1080i
Контейнер: TS
Видео: AVC, 1920x1080 (16/9), 25.000 fps, 15.3 Mbps (0.289 bit/pixel)
Аудио: MP2, 48.0 KHz, 2 ch, 192 Kbps, CBR (Russian)

MediaInfo

Общее
Идентификатор : 3 (0x3)
Полное имя : K:\Верные ходы.ts
Формат : MPEG-TS
Размер файла : 9,64 Гбайт
Продолжительность : 1 ч. 24 м.
Режим общего битрейта : Переменный
Общий поток : 16,3 Мбит/сек
Видео
Идентификатор : 2141 (0x85D)
Идентификатор меню : 21004 (0x520C)
Формат : AVC
Формат/Информация : Advanced Video Codec
Профиль формата : Main@L4.0
Параметр CABAC формата : Да
Параметр ReFrames формата : 3 кадра
Идентификатор кодека : 27
Продолжительность : 1 ч. 24 м.
Битрейт : 15,3 Мбит/сек
Ширина : 1920 пикселей
Высота : 1080 пикселей
Соотношение сторон : 16:9
Частота кадров : 25,000 кадров/сек
Стандарт вещания : Component
Цветовое пространство : YUV
Субдискретизация насыщенности : 4:2:0
Битовая глубина : 8 бит
Тип развёртки : Чересстрочная
Порядок развёртки : Верхнее поле первое
Бит/(Пиксели*Кадры) : 0.295
Размер потока : 9,05 Гбайт (94%)
Основные цвета : BT.709
Характеристики трансфера : BT.709
Коэффициенты матрицы : BT.709
Аудио
Идентификатор : 2142 (0x85E)
Идентификатор меню : 21004 (0x520C)
Формат : MPEG Audio
Версия формата : Version 1
Профиль формата : Layer 2
Идентификатор кодека : 4
Продолжительность : 1 ч. 24 м.
Вид битрейта : Постоянный
Битрейт : 192 Кбит/сек
Каналы : 2 канала
Частота : 48,0 КГц
Метод сжатия : С потерями
Задержка видео : -8 мс.
Размер потока : 116 Мбайт (1%)
Язык : Russian

Скриншоты


_________________
Показать сообщения:    

Текущее время: Сегодня 03:44

Часовой пояс: GMT



Вы не можете начинать темы
Вы не можете отвечать на сообщения
Вы не можете редактировать свои сообщения
Вы не можете удалять свои сообщения
Вы не можете голосовать в опросах
Вы не можете прикреплять файлы к сообщениям
Вы не можете скачивать файлы