Важное объявление!
У Нас Все раздачи мультитрекерные, при нуле пиров в релизах, можете смело вставать на закачку!
 
Автор Сообщение

HUNTER

Стаж:
4 года 4 месяца
Сообщений:
56842

Репутация: 101

[+] [-]
Вне форума [Профиль] [ЛС]

Верное сердце / True Heart-
Страна: США
Студия: Orion Pictures
Жанр: приключения, семейный
Год выпуска: 1997
Продолжительность: 01:28:47-Перевод 1: Профессиональный (двухголосый закадровый) НТВ+ - Елена Борзунова, Павел Кипнис
Перевод 2: Авторский (одноголосый закадровый) - Юрий Сербин
Cубтитры: нет
Оригинальная аудиодорожка: английский-Режиссер: Кэтрин Киран / Catherine Cyran
В ролях: Кирстен Данст, Закари Ти Брайан, Аугуст Шелленберг, Дей Янг, Майкл Гросс, Том МакБет...- | Релиз: -Описание: Четырнадцатилетние близнецы Сэм и Бонни не предполагали, какой авантюрой может обернуться обычный авиаперелет. Их небольшой самолет упал где-то в дикой глуши канадских лесов, и ребята оказались единственными, кто выжил в этой катастрофе.
Загадочный индеец по имени Хонанеста стал их спасителем и защитником. Так началось полное приключений путешествие, в котором героям придется столкнуться с опасностями и красотами неприветливой северной природы, их будут преследовать относительно безобидные медведи и смертельно опасные браконьеры.-Доп. информация:
За оцифровку перевода Юрия Сербина с VHS Hi-Fi спасибо Fikaloid.-Семпл: http://sendfile.su/1135868-Тип релиза: HDTV 1080i
Контейнер: MKV
Видео: 1920x1080i (16:9), 25.000 fps, AVC, ~6803 Kbps, 0.131 bits/pixel
Аудио 1: Русский, 48.0 KHz, MPEG-1 Audio layer 2, 2 ch, 192 kbps - Двухголосый закадровый | "НТВ+" | Елена Борзунова и Павел Кипнис
Аудио 2: Русский, 48.0 KHz, 16 bits, FLAC, 2 ch, 653 kbps - Одноголосый закадровый | VHS "Пирамида" | Юрий Сербин
Аудио 3: English, 48.0 KHz, MPEG-1 Audio layer 2, 2 ch, 192 kbps - Original

MediaInfo

GeneralUnique ID : 226897280262811604255953520689072269104 (0xAAB2D39E67A87FBDA594A7533F3F6730)Complete name : True Heart 1997 MGMHD 1080i.rus.eng.mkvFormat : MatroskaFormat version : Version 4 / Version 2File size : 4.79 GiBDuration : 1h 28mnOverall bit rate mode : VariableOverall bit rate : 7 727 KbpsEncoded date : UTC 2015-07-09 16:58:41Writing application : mkvmerge v8.1.0 ('Psychedelic Postcard') 64bitWriting library : libebml v1.3.1 + libmatroska v1.4.2
VideoID : 1Format : AVCFormat/Info : Advanced Video CodecFormat profile : Main@L4Format settings, CABAC : YesFormat settings, ReFrames : 4 framesFormat settings, GOP : M=4, N=28Codec ID : V_MPEG4/ISO/AVCWidth : 1 920 pixelsHeight : 1 080 pixelsDisplay aspect ratio : 16:9Frame rate mode : VariableOriginal frame rate : 25.000 fpsStandard : ComponentColor space : YUVChroma subsampling : 4:2:0Bit depth : 8 bitsScan type : InterlacedScan order : Top Field FirstDefault : YesForced : NoColor range : LimitedColor primaries : BT.709Transfer characteristics : BT.709Matrix coefficients : BT.709
Audio #1ID : 2Format : MPEG AudioFormat version : Version 1Format profile : Layer 2Codec ID : A_MPEG/L2Codec ID/Hint : MP2Duration : 1h 28mnBit rate mode : ConstantBit rate : 192 KbpsChannel(s) : 2 channelsSampling rate : 48.0 KHzCompression mode : LossyStream size : 122 MiB (2%)Title : Двухголосый закадровый | "НТВ+" | Елена Борзунова и Павел КипнисLanguage : RussianDefault : YesForced : No
Audio #2ID : 3Format : FLACFormat/Info : Free Lossless Audio CodecCodec ID : A_FLACDuration : 1h 28mnBit rate mode : VariableChannel(s) : 2 channelsSampling rate : 48.0 KHzBit depth : 16 bitsTitle : Одноголосый закадровый | VHS "Пирамида" | Юрий СербинWriting library : libFLAC 1.2.1 (UTC 2007-09-17)Language : RussianDefault : NoForced : No
Audio #3ID : 4Format : MPEG AudioFormat version : Version 1Format profile : Layer 2Codec ID : A_MPEG/L2Codec ID/Hint : MP2Duration : 1h 28mnBit rate mode : ConstantBit rate : 192 KbpsChannel(s) : 2 channelsSampling rate : 48.0 KHzCompression mode : LossyStream size : 122 MiB (2%)Title : OriginalLanguage : EnglishDefault : NoForced : No

Скриншоты


_________________
Показать сообщения:    

Текущее время: Сегодня 20:51

Часовой пояс: GMT



Вы не можете начинать темы
Вы не можете отвечать на сообщения
Вы не можете редактировать свои сообщения
Вы не можете удалять свои сообщения
Вы не можете голосовать в опросах
Вы не можете прикреплять файлы к сообщениям
Вы не можете скачивать файлы
Наши партнеры: интернет магазин Ивановского трикотажа textilla.ru