Важное объявление!
У Нас Все раздачи мультитрекерные, при нуле пиров в релизах, можете смело вставать на закачку!
 
Автор Сообщение

HUNTER

Стаж:
4 года 4 месяца
Сообщений:
56839

Репутация: 101

[+] [-]
Вне форума [Профиль] [ЛС]

Верная Рука – друг индейцев / Old Surehand-
Год выпуска: 1965
Страна: Германия (ФРГ), Югославия
Жанр: приключения, вестерн
Продолжительность: 01:33:06
Перевод: Профессиональный (полное дублирование) Союзмультфильм
Оригинальная звуковая дорожка: German
Cубтитры: German, English-Режиссер: Альфред Форер / Alfred Vohrer
В ролях: Стюарт Грейнджер, Пьер Брис, Ларри Пеннелл, Летиция Роман, Теренс Хилл, Милан Срдоч, Вольфганг Лукши, Эрик Шуманн, Велимир «Бата» Живоинович, Душан Антониевич
Описание: В центре внимания Джонни Гарден, так же известный как Шаттерхэнд, или Верная Рука. Шаттерхэнд странствует по Дикому Западу в поисках убийц своей семьи. В этих поисках он натыкается на таинственного Генерала, который стравливает индейцев племени команчи с американской армией с целью завладеть землёй индейцев, богатой золотом. Но Шаттерхэнд и Виннету постараются всеми силами помешать злодеям и их коварным планам.-Релиз: by delia
Формат: MKV
Видео: 1280x544 at 23.976 fps, x264@L4.1, ~9950 kbps avg
Аудио #1: Russian: 48 kHz, AC3, 2/0 (L,R) ch, ~192.00 kbps avg |Многоголосый, закадровый|
Аудио #2: German: 48 kHz, DTS, 2.0 ch, ~755 kbps avg
Аудио #3: English: 48 kHz, DTS, 2.0 ch, ~755 kbps avg
Семпл-

-

mInfo


Формат : Matroska
Версия формата : Version 4 / Version 2
Размер файла : 8,06 Гбайт
Продолжительность : 1 ч. 38 м.
Общий поток : 11,7 Мбит/сек
Дата кодирования : UTC 2013-02-10 09:06:38
Программа кодирования : mkvmerge v6.0.0 ('Coming Up For Air') built on Jan 20 2013 09:52:00
Библиотека кодирования : libebml v1.3.0 + libmatroska v1.4.0
Видео
Идентификатор : 1
Формат : AVC
Формат/Информация : Advanced Video Codec
Профиль формата : High@L4.1
Параметр CABAC формата : Да
Параметр ReFrames формата : 9 кадров
Идентификатор кодека : V_MPEG4/ISO/AVC
Продолжительность : 1 ч. 38 м.
Битрейт : 9950 Кбит/сек
Ширина : 1280 пикселей
Высота : 544 пикселя
Соотношение сторон : 2,35:1
Частота кадров : 23,976 кадра/сек
Цветовое пространство : YUV
Субдискретизация насыщенности : 4:2:0
Битовая глубина : 8 бит
Тип развёртки : Прогрессивная
Бит/(Пиксели*Кадры) : 0.596
Размер потока : 6,72 Гбайт (83%)
Библиотека кодирования : x264 core 129 r2245kMod bc13772
Настройки программы : cabac=1 / ref=9 / deblock=1:-3:-3 / analyse=0x3:0x113 / me=tesa / subme=10 / psy=1 / fade_compensate=0.00 / psy_rd=1.00:0.05 / mixed_ref=1 / me_range=32 / chroma_me=1 / trellis=2 / 8x8dct=1 / cqm=0 / deadzone=21,11 / fast_pskip=0 / chroma_qp_offset=-3 / threads=6 / lookahead_threads=1 / sliced_threads=0 / nr=0 / decimate=1 / interlaced=0 / bluray_compat=0 / constrained_intra=0 / bframes=10 / b_pyramid=2 / b_adapt=2 / b_bias=0 / direct=3 / weightb=1 / open_gop=0 / weightp=2 / keyint=250 / keyint_min=23 / scenecut=40 / intra_refresh=0 / rc=2pass / mbtree=0 / bitrate=9950 / ratetol=1.0 / qcomp=0.80 / qpmin=0 / qpmax=69 / qpstep=4 / cplxblur=20.0 / qblur=0.5 / ip_ratio=1.40 / pb_ratio=1.30 / aq=2:0.80
Язык : English
Коэффициенты матрицы : BT.709-5, BT.1361, IEC 61966-2-4 709, SMPTE RP177
Аудио #1
Идентификатор : 2
Формат : AC-3
Формат/Информация : Audio Coding 3
Профиль формата : Dolby Digital
Расширение режима : CM (complete main)
Идентификатор кодека : A_AC3
Продолжительность : 1 ч. 38 м.
Вид битрейта : Постоянный
Битрейт : 192 Кбит/сек
Каналы : 2 канала
Расположение каналов : Front: L R
Частота : 48,0 КГц
Битовая глубина : 16 бит
Метод сжатия : С потерями
Размер потока : 136 Мбайт (2%)
Заголовок : Многоголосый закадровый
Язык : Russian
Аудио #2
Идентификатор : 3
Формат : DTS
Формат/Информация : Digital Theater Systems
Идентификатор кодека : A_DTS
Продолжительность : 1 ч. 38 м.
Вид битрейта : Постоянный
Битрейт : 755 Кбит/сек
Каналы : 2 канала
Расположение каналов : Front: L R
Частота : 48,0 КГц
Битовая глубина : 16 бит
Метод сжатия : С потерями
Размер потока : 533 Мбайт (6%)
Язык : German
Аудио #3
Идентификатор : 4
Формат : DTS
Формат/Информация : Digital Theater Systems
Идентификатор кодека : A_DTS
Продолжительность : 1 ч. 38 м.
Вид битрейта : Постоянный
Битрейт : 755 Кбит/сек
Каналы : 2 канала
Расположение каналов : Front: L R
Частота : 48,0 КГц
Битовая глубина : 16 бит
Метод сжатия : С потерями
Размер потока : 533 Мбайт (6%)
Язык : English
Текст #1
Идентификатор : 5
Формат : UTF-8
Идентификатор кодека : S_TEXT/UTF8
Идентификатор кодека/Информация : UTF-8 Plain Text
Язык : German
Текст #2
Идентификатор : 6
Формат : UTF-8
Идентификатор кодека : S_TEXT/UTF8
Идентификатор кодека/Информация : UTF-8 Plain Text
Язык : English
Меню
00:00:00.000 : en:00:00:00.000
00:05:31.121 : en:00:05:31.121
00:13:43.989 : en:00:13:43.989
00:24:18.831 : en:00:24:18.831
00:34:22.852 : en:00:34:22.852
00:44:13.317 : en:00:44:13.317
00:52:32.815 : en:00:52:32.815
01:04:32.076 : en:01:04:32.076
01:13:40.332 : en:01:13:40.332
01:23:31.423 : en:01:23:31.423
01:31:17.013 : en:01:31:17.013

-
Цитата:


*** Сохранены оригинальные чаптеры как на Blu-ray.

_________________
Показать сообщения:    

Текущее время: Сегодня 07:38

Часовой пояс: GMT



Вы не можете начинать темы
Вы не можете отвечать на сообщения
Вы не можете редактировать свои сообщения
Вы не можете удалять свои сообщения
Вы не можете голосовать в опросах
Вы не можете прикреплять файлы к сообщениям
Вы не можете скачивать файлы