Важное объявление!
У Нас Все раздачи мультитрекерные, при нуле пиров в релизах, можете смело вставать на закачку!
 
Автор Сообщение

HUNTER

Стаж:
4 года 4 месяца
Сообщений:
56722

Репутация: 101

[+] [-]
Вне форума [Профиль] [ЛС]

Великолепие в траве / Splendor in the Grass-
Год выпуска: 1961
Страна: США
Жанр: драма, мелодрама
Продолжительность: 02:03:55
Перевод 1: Профессиональный (многоголосый закадровый) НТВ+
Перевод 2: Профессиональный (двухголосый закадровый) Ульпаней Эльром
Перевод 3: Одноголосый закадровый
Оригинальная аудиодорожка: Английская
Cубтитры: Английские-Режиссер: Элиа Казан / Elia Kazan
В ролях: Натали Вуд, Пэт Хингл, Одри Кристи, Барбара Лоден, Зора Ламперт, Уоррен Битти, Фред Стюарт, Джоэнна Рус, Джон МакГоверн, Жан Норрис-Описание:
Канзас 20-х годов. Замкнутый мирок маленького городка, где царят суровые пуританские нравы. Любовь двух старшеклассников под запретом. Она не может ослушаться мать, он боится отца. Не найдя выхода чувствам, он заводит интрижку с местной официанткой...-За НТВ спасибо StudioRAK, за DVO спасибо Mantisby, за VO – Toha88888888.
| IMDb | Сэмпл-Качество: WEB-DL 720p (ViGi)
Контейнер: MKV
Видео: AVC, 1280x720 (1.78:1), 23.976 fps, 3924 kbps
Аудио 1: Русский AС3, 2.0, 48 kHz, 192 kbps — НТВ+
Аудио 2: Русский AС3, 2.0, 48 kHz, 192 kbps — Ульпаней Эльром
Аудио 3: Русский AС3, 2.0, 48 kHz, 192 kbps — VO
Аудио 4: Английский AAC 2.0, 48 kHz, 123 kbps
Формат субтитров: softsub (SRT)

Скриншоты


MI

General
Unique ID : 197196049831699512983661049632210505204 (0x945A93E6051692B5837C14124ECB4DF4)
Complete name : Splendor.in.the.Grass.1961.720p.WEB-DL.H.264-ViGi.mkv
Format : Matroska
Format version : Version 2
File size : 4.00 GiB
Duration : 2h 3mn
Overall bit rate : 4 626 Kbps
Movie name : Splendor in the Grass / Великолепие в траве (1961) – RuTracker
Encoded date : UTC 2014-04-05 04:30:27
Writing application : mkvmerge v6.1.0 ('Old Devil') built on Mar 2 2013 14:32:37
Writing library : libebml v1.3.0 + libmatroska v1.4.0
Attachment : Yes
Video
ID : 1
Format : AVC
Format/Info : Advanced Video Codec
Format profile : High@L3.1
Format settings, CABAC : No
Format settings, ReFrames : 2 frames
Codec ID : V_MPEG4/ISO/AVC
Duration : 2h 3mn
Width : 1 280 pixels
Height : 720 pixels
Display aspect ratio : 16:9
Frame rate mode : Constant
Frame rate : 23.976 fps
Color space : YUV
Chroma subsampling : 4:2:0
Bit depth : 8 bits
Scan type : Progressive
Title : Splendor.in.the.Grass.1961.720p.WEB-DL.AAC2.0.H.264-ViGi
Language : English
Default : Yes
Forced : No
Color primaries : BT.709
Transfer characteristics : BT.709
Matrix coefficients : BT.709
Audio #1
ID : 2
Format : AC-3
Format/Info : Audio Coding 3
Mode extension : CM (complete main)
Format settings, Endianness : Big
Codec ID : A_AC3
Duration : 2h 3mn
Bit rate mode : Constant
Bit rate : 192 Kbps
Channel(s) : 2 channels
Channel positions : Front: L R
Sampling rate : 48.0 KHz
Bit depth : 16 bits
Compression mode : Lossy
Stream size : 170 MiB (4%)
Title : MVO – НТВ+
Language : Russian
Default : Yes
Forced : No
Audio #2
ID : 3
Format : AC-3
Format/Info : Audio Coding 3
Mode extension : CM (complete main)
Format settings, Endianness : Big
Codec ID : A_AC3
Duration : 2h 3mn
Bit rate mode : Constant
Bit rate : 192 Kbps
Channel(s) : 2 channels
Channel positions : Front: L R
Sampling rate : 48.0 KHz
Bit depth : 16 bits
Compression mode : Lossy
Stream size : 170 MiB (4%)
Title : DVO – Ульпаней Эльром
Language : Russian
Default : No
Forced : No
Audio #3
ID : 4
Format : AC-3
Format/Info : Audio Coding 3
Mode extension : CM (complete main)
Format settings, Endianness : Big
Codec ID : A_AC3
Duration : 2h 3mn
Bit rate mode : Constant
Bit rate : 192 Kbps
Channel(s) : 2 channels
Channel positions : Front: L R
Sampling rate : 48.0 KHz
Bit depth : 16 bits
Compression mode : Lossy
Stream size : 170 MiB (4%)
Title : VO
Language : Russian
Default : No
Forced : No
Audio #4
ID : 5
Format : AAC
Format/Info : Advanced Audio Codec
Format profile : LC
Codec ID : A_AAC
Duration : 2h 3mn
Channel(s) : 2 channels
Channel positions : Front: L R
Sampling rate : 48.0 KHz
Compression mode : Lossy
Title : Original
Language : English
Default : No
Forced : No
Text
ID : 6
Format : UTF-8
Codec ID : S_TEXT/UTF8
Codec ID/Info : UTF-8 Plain Text
Language : English
Default : No
Forced : No
Menu
00:00:00.000 : en:Chapter 1
00:09:47.000 : en:Chapter 2
00:19:57.000 : en:Chapter 3
00:31:39.000 : en:Chapter 4
00:39:40.000 : en:Chapter 5
00:50:13.000 : en:Chapter 6
00:58:30.000 : en:Chapter 7
01:08:46.000 : en:Chapter 8
01:19:25.000 : en:Chapter 9
01:29:33.000 : en:Chapter 10
01:40:13.000 : en:Chapter 11
01:49:47.000 : en:Chapter 12

_________________
Показать сообщения:    

Текущее время: Сегодня 12:27

Часовой пояс: GMT



Вы не можете начинать темы
Вы не можете отвечать на сообщения
Вы не можете редактировать свои сообщения
Вы не можете удалять свои сообщения
Вы не можете голосовать в опросах
Вы не можете прикреплять файлы к сообщениям
Вы не можете скачивать файлы