Важное объявление!
У Нас Все раздачи мультитрекерные, при нуле пиров в релизах, можете смело вставать на закачку!
 
Автор Сообщение

HUNTER

Стаж:
4 года 4 месяца
Сообщений:
56808

Репутация: 101

[+] [-]
Вне форума [Профиль] [ЛС]

Великое железнодорожное путешествие по Европе / BBC. Great Continental Railway Journeys
Год выпуска: 2012-2013
Страна: Великобритания
Телеканал: BBC
Жанр: документальный, история
Продолжительность: серия ~00:59:00
Перевод: Профессиональный одноголосый (закадровый) - SDI Media
Описание: Майкл Портильо отправляется в увлекательное железнодорожное путешествие по Европе. На этот раз он неуклонно следует железнодорожному гиду 1913 года, созданному легендой британских железных дорог Джорджем Брэдшоу. Майкл оказывается в предвоенной Европе императоров и королей, эпохе великолепия и пышности. Благодаря железнодорожному гиду начала 20-го века туристы эдвардианской эпохи открыли для себя новый экзотический мир: сверкающие огромные города, зачаровывающие альпийские пейзажи, лазурные моря и живописные деревни.
Сэмпл: http://multi-up.com/1035240
качество: HDTVRip
формат: AVI
Видео: 720x400 (16:9), 25 fps, XviD 65 ~2000 kbps avg, 0.278 bit/pixel
Аудио: AC3, ~192.00 kbps, 48 kHz, 2 ch,

Список выпусков/серий

1 сезон:
1. Из Лондона в Монте-Карло
2. Венгрия - Австрия
3. От Берлина к Рейну
4. Швейцария
5. От Амстердама до Северной Франции
2 сезон:
1. Мадрид - Гибралтар
2. Турин - Венеция
3. Дрезден - Киль
4. Копенгаген - Осло
5. Прага - Мюнхен
6. Бордо - Бильбао

MediaInfo

GeneralComplete name : E:\Download\Великое железнодорожное путешествие по Европе HDTVRip\Сезон 1\1. Из Лондона в Монте-Карло .aviFormat : AVIFormat/Info : Audio Video InterleaveFile size : 931 MiBDuration : 59mn 7sOverall bit rate : 2 201 KbpsWriting application : VirtualDubMod 1.5.10.3 | www.virtualdub-fr.org || (build 2550/release)Writing library : VirtualDubMod build 2550/release
VideoID : 0Format : MPEG-4 VisualFormat profile : Advanced Simple@L5Format settings, BVOP : 1Format settings, QPel : NoFormat settings, GMC : No warppointsFormat settings, Matrix : CustomCodec ID : XVIDCodec ID/Hint : XviDDuration : 59mn 7sBit rate : 2 000 KbpsWidth : 720 pixelsHeight : 400 pixelsDisplay aspect ratio : 16:9Frame rate : 25.000 fpsColor space : YUVChroma subsampling : 4:2:0Bit depth : 8 bitsScan type : ProgressiveCompression mode : LossyBits/(Pixel*Frame) : 0.278Stream size : 846 MiB (91%)Writing library : XviD 65
AudioID : 1Format : AC-3Format/Info : Audio Coding 3Mode extension : CM (complete main)Format settings, Endianness : BigCodec ID : 2000Duration : 59mn 7sBit rate mode : ConstantBit rate : 192 KbpsChannel(s) : 2 channelsChannel positions : Front: L RSampling rate : 48.0 KHzBit depth : 16 bitsCompression mode : LossyStream size : 81.2 MiB (9%)Alignment : Split accross interleavesInterleave, duration : 40 ms (1.00 video frame)Interleave, preload duratio : 500 ms

Скриншоты


_________________
Показать сообщения:    

Текущее время: Сегодня 14:34

Часовой пояс: GMT



Вы не можете начинать темы
Вы не можете отвечать на сообщения
Вы не можете редактировать свои сообщения
Вы не можете удалять свои сообщения
Вы не можете голосовать в опросах
Вы не можете прикреплять файлы к сообщениям
Вы не можете скачивать файлы