Важное объявление!
У Нас Все раздачи мультитрекерные, при нуле пиров в релизах, можете смело вставать на закачку!
 
Автор Сообщение

HUNTER

Стаж:
4 года 4 месяца
Сообщений:
56783

Репутация: 101

[+] [-]
Вне форума [Профиль] [ЛС]

Великий уравнитель / The Equalizer
Страна: США
Студия: Columbia Pictures, Escape Artists, Lionsgate, Lonetree Entertainment, LStar Capital, Mace Neufeld
Жанр: боевик, триллер, криминал
Год выпуска: 2014
Продолжительность: 02:12:02
Перевод 1: Профессиональный (дублированный) Blu-ray CEE
Перевод 2: Одноголосый (закадровый) Есарев
Cубтитры: русские (forced, full), английские (forced, SDH)
Оригинальная аудиодорожка: английский
Режиссер: Антуан Фукуа / Antoine Fuqua
В ролях: Дензел Вашингтон, Мартон Чокаш, Хлоя Грейс Морец, Дэвид Харбор, Хейли Беннетт, Билл Пуллман, Мелисса Лео, Дэвид Мюнье, Джонни Скуртис, Алекс Видов
Описание: Роберт МакКолл — бывший спецназовец. После увольнения со службы он собирается начать нормальную мирную жизнь, дав себе обещание, больше никогда не брать в руки оружия. Но в один прекрасный момент он встречает молодую девушку, зарабатывающую на жизнь проституцией, которую на его глазах избивают бандиты и увозят в неизвестном направлении. Тогда он решает отыскать ее, после чего вступает в неравную схватку с русской мафией и продажными агентами ЦРУ. Ради справедливости он готов нарушить собственное обещание и применить оружие против людей, которые просто не заслуживают жить в этом мире…

Тип релиза: BDRemux 1080p
Контейнер: MKV
Видео: AVC,1920x1080, 22852 kbps, 23.976 fps
Аудио 1: Russian: 48 kHz, AC3, 3/2 (L,C,R,l,r) + LFE ch, ~640.00 kbps avg |Blu-ray CEE|
Аудио 2: Ukrainian: 48 kHz, AC3, 3/2 (L,C,R,l,r) + LFE ch, ~640.00 kbps avg |Blu-ray CEE|
Аудио 3: DTS-HD Master Audio Russian 2708 kbps 7.1 / 48 kHz / 2708 kbps / 16-bit (DTS Core: 5.1 / 48 kHz / 1509 kbps / 16-bit) |Есарев|
Аудио 4: DTS-HD Master Audio English 2713 kbps 7.1 / 48 kHz / 2713 kbps / 16-bit (DTS Core: 5.1 / 48 kHz / 1509 kbps / 16-bit) |Original|
Чаптеры:есть

Доп.информация

Перевод Дмитрия Есарева доступен благодаря - mihey10

MediaInfo

General
Unique ID : 178439913760453222518692097720846851264 (0x863E46FE589920ECB04AC15479071CC0)
Complete name : D:\рипы\The.Equalizer.2014.1080p.BluRay.REMUX.AVC.DTS-HD.MA.7.1-Talian-.mkv
Format : Matroska
Format version : Version 2
File size : 27.3 GiB
Duration : 2h 12mn
Overall bit rate mode : Variable
Overall bit rate : 29.6 Mbps
Movie name : The Equalizer-Talian-
Encoded date : UTC 2014-12-18 20:31:56
Writing application : mkvmerge v5.7.0 ('The Whirlwind') built on Jul 8 2012 20:08:51
Writing library : libebml v1.2.3 + libmatroska v1.3.0
Attachment : Yes
Video
ID : 1
Format : AVC
Format/Info : Advanced Video Codec
Format profile : High@L4.1
Format settings, CABAC : Yes
Format settings, ReFrames : 2 frames
Format settings, GOP : M=1, N=10
Codec ID : V_MPEG4/ISO/AVC
Duration : 2h 12mn
Bit rate mode : Variable
Bit rate : 23.6 Mbps
Width : 1 920 pixels
Height : 1 080 pixels
Display aspect ratio : 16:9
Frame rate : 23.976 fps
Color space : YUV
Chroma subsampling : 4:2:0
Bit depth : 8 bits
Scan type : Progressive
Bits/(Pixel*Frame) : 0.475
Stream size : 21.8 GiB (80%)
Title : BDRemux
Language : English
Default : Yes
Forced : No
Audio #1
ID : 2
Format : AC-3
Format/Info : Audio Coding 3
Mode extension : CM (complete main)
Format settings, Endianness : Big
Codec ID : A_AC3
Duration : 2h 12mn
Bit rate mode : Constant
Bit rate : 640 Kbps
Channel(s) : 6 channels
Channel positions : Front: L C R, Side: L R, LFE
Sampling rate : 48.0 KHz
Bit depth : 16 bits
Compression mode : Lossy
Stream size : 604 MiB (2%)
Title : DUB-Blu-ray CEE
Language : Russian
Default : Yes
Forced : No
Audio #2
ID : 3
Format : AC-3
Format/Info : Audio Coding 3
Mode extension : CM (complete main)
Format settings, Endianness : Big
Codec ID : A_AC3
Duration : 2h 12mn
Bit rate mode : Constant
Bit rate : 640 Kbps
Channel(s) : 6 channels
Channel positions : Front: L C R, Side: L R, LFE
Sampling rate : 48.0 KHz
Bit depth : 16 bits
Compression mode : Lossy
Stream size : 604 MiB (2%)
Title : DUB-Blu-ray CEE
Language : Ukrainian
Default : No
Forced : No
Audio #3
ID : 4
Format : DTS
Format/Info : Digital Theater Systems
Format profile : MA / Core
Codec ID : A_DTS
Duration : 2h 12mn
Bit rate mode : Variable
Bit rate : 1 729 Kbps / 1 510 Kbps
Channel(s) : 8 channels / 6 channels
Channel positions : Front: L C R, Side: L R, Back: L R, LFE / Front: L C R, Side: L R, LFE
Sampling rate : 48.0 KHz
Bit depth : 16 bits
Compression mode : Lossless / Lossy
Title : VO-Есарев
Language : Russian
Default : No
Forced : No
Audio #4
ID : 5
Format : DTS
Format/Info : Digital Theater Systems
Format profile : MA / Core
Codec ID : A_DTS
Duration : 2h 12mn
Bit rate mode : Variable
Bit rate : 2 371 Kbps / 1 510 Kbps
Channel(s) : 8 channels / 6 channels
Channel positions : Front: L C R, Side: L R, Back: L R, LFE / Front: L C R, Side: L R, LFE
Sampling rate : 48.0 KHz
Bit depth : 16 bits
Compression mode : Lossless / Lossy
Title : Original
Language : English
Default : No
Forced : No
Text #1
ID : 6
Format : UTF-8
Codec ID : S_TEXT/UTF8
Codec ID/Info : UTF-8 Plain Text
Title : Sub-Forced
Language : Russian
Default : Yes
Forced : No
Text #2
ID : 7
Format : UTF-8
Codec ID : S_TEXT/UTF8
Codec ID/Info : UTF-8 Plain Text
Title : Sub-Full
Language : Russian
Default : No
Forced : No
Text #3
ID : 8
Format : UTF-8
Codec ID : S_TEXT/UTF8
Codec ID/Info : UTF-8 Plain Text
Title : Sub-Forced
Language : English
Default : No
Forced : No
Text #4
ID : 9
Format : UTF-8
Codec ID : S_TEXT/UTF8
Codec ID/Info : UTF-8 Plain Text
Title : Sub-SDH
Language : English
Default : No
Forced : No
Menu
00:00:00.000 : en:Chapter 01
00:06:49.659 : en:Chapter 02
00:13:03.574 : en:Chapter 03
00:20:55.462 : en:Chapter 04
00:25:48.755 : en:Chapter 05
00:35:26.791 : en:Chapter 06
00:46:31.955 : en:Chapter 07
00:55:43.923 : en:Chapter 08
01:03:59.043 : en:Chapter 09
01:13:53.053 : en:Chapter 10
01:20:58.436 : en:Chapter 11
01:31:09.338 : en:Chapter 12
01:38:37.620 : en:Chapter 13
01:47:29.276 : en:Chapter 14
01:55:38.222 : en:Chapter 15
02:00:01.235 : en:Chapter 16

Скриншоты




_________________
Показать сообщения:    

Текущее время: Сегодня 19:56

Часовой пояс: GMT



Вы не можете начинать темы
Вы не можете отвечать на сообщения
Вы не можете редактировать свои сообщения
Вы не можете удалять свои сообщения
Вы не можете голосовать в опросах
Вы не можете прикреплять файлы к сообщениям
Вы не можете скачивать файлы