Важное объявление!
У Нас Все раздачи мультитрекерные, при нуле пиров в релизах, можете смело вставать на закачку!
 
Автор Сообщение

HUNTER

Стаж:
4 года 4 месяца
Сообщений:
56798

Репутация: 101

[+] [-]
Вне форума [Профиль] [ЛС]

Великий мышиный сыщик
The Great Mouse Detective
«Can he bring the dirty rat to justice?»
Год выпуска: 1986
Страна: США
Жанр: мультфильм, мюзикл, детектив, приключения, семейный, ...
Продолжительность: 01:14:17
Перевод:
Профессиональный (полное дублированние)
Профессиональный (многоголосый закадровый) «Силена Интернэшнл»
Авторский (одноголосый закадровый) Алексей Михалёв
русские субтитры: есть- Режиссёр: Рон Клементс : Ron Clements, Барни Матинсон : Burny Mattinson, Дэвид Микенер : David Michener- В главных ролях: Винсент Прайс, Бэрри Ингэм, Вэл Бэттин, Сюзанна Полащек, Кэнди Кандидо, Диана Чесни, Ив Бреннер, Алан Янг, Бэзил Рэтбоун, Лори Майн ...
Роли дублировали: Сергей Лысов, Олег Куликович, Виктор Костецкий, Альбина Ишмуратова, Борис Хвошнянский ...- Описание: Оливия обращается за помощью к Базилю с Бэйкер-стрит. Она просит найти исчезнувшего отца. Базиль, его друг и соратник доктор Доусон, а также пес Тоби берутся за расследование. Следы ведут к профессору Ратигану, крупному преступнику, которому Базилю и прийдется противостоять.-
рейтинг MPAA : нет возрастных ограничений!-
Качество: BDRip 720p
Формат: MKV
Видео кодек: AVC
Аудио кодек: AC3 : DTS
Видео: 1280x720 , 23,976 fps, ~4 274 kbps avg, 0.193 bit/pixel
Аудио #1: 48.0 kHz, AC3 Dolby Digital, 2 ch, ~192 kbps (DUB)
Аудио #2: 48.0 kHz, AC3 Dolby Digital, 2 ch, ~192 kbps (MVO)
Аудио #3: 48.0 kHz, AC3 Dolby Digital, 3/2 (L,C,R,l,r) + LFE ch, ~448 kbps (AVO)
Аудио #4: 48.0 kHz, DTS, 6 ch, ~1510 kbps (ENG)
субтитры: русские, английские
доп. информация: навигация по главам (18 глав)-

MediaInfo

Общее
Уникальный идентификатор : 187105367672559009889382619834711415298 (0x8CC32EDB6C12D2E797CF9DEAD0E21A02)
Полное имя : G:\ЯЯ\Великий мышиный сыщик\The Great Mouse Detective.1986.BDRip 720р.DUB + MVO + ENG + Sub.mkv
Формат : Matroska
Версия формата : Version 2
Размер файла : 3,43 Гбайт
Продолжительность : 1 ч. 14 м.
Общий поток : 6610 Кбит/сек
Дата кодирования : UTC 2012-11-15 12:08:23
Программа кодирования : mkvmerge v5.7.0 ('The Whirlwind') built on Jul 8 2012 20:08:51
Библиотека кодирования : libebml v1.2.3 + libmatroska v1.3.0
Видео
Идентификатор : 1
Формат : AVC
Формат/Информация : Advanced Video Codec
Профиль формата : High@L4.1
Параметр CABAC формата : Да
Параметр ReFrames формата : 9 кадров
Идентификатор кодека : V_MPEG4/ISO/AVC
Продолжительность : 1 ч. 14 м.
Битрейт : 4274 Кбит/сек
Ширина : 1280 пикселей
Высота : 720 пикселей
Соотношение сторон : 16:9
Частота кадров : 23,976 кадра/сек
Цветовое пространство : YUV
Субдискретизация насыщенности : 4:2:0
Битовая глубина : 8 бит
Тип развёртки : Прогрессивная
Бит/(Пиксели*Кадры) : 0.193
Размер потока : 2,15 Гбайт (63%)
Библиотека кодирования : x264 core 125 r2200+677M 3a754e7
Настройки программы : cabac=1 / ref=9 / deblock=1:1:1 / analyse=0x3:0x113 / me=umh / subme=10 / psy=1 / fade_compensate=0.00 / psy_rd=1.05:0.10 / mixed_ref=1 / me_range=32 / chroma_me=1 / trellis=2 / 8x8dct=1 / cqm=0 / deadzone=21,11 / fast_pskip=0 / chroma_qp_offset=-2 / threads=6 / lookahead_threads=1 / sliced_threads=0 / nr=0 / decimate=1 / interlaced=0 / bluray_compat=0 / constrained_intra=0 / fgo=0 / bframes=6 / b_pyramid=2 / b_adapt=2 / b_bias=0 / direct=3 / weightb=1 / open_gop=0 / weightp=2 / keyint=250 / keyint_min=23 / scenecut=40 / intra_refresh=0 / rc=2pass / mbtree=0 / bitrate=4274 / ratetol=1.0 / qcomp=0.70 / qpmin=0 / qpmax=69 / qpstep=4 / cplxblur=20.0 / qblur=0.5 / ip_ratio=1.40 / pb_ratio=1.30 / aq=2:1.00
Default : Да
Forced : Нет
Аудио #1
Идентификатор : 2
Формат : AC-3
Формат/Информация : Audio Coding 3
Расширение режима : CM (complete main)
Идентификатор кодека : A_AC3
Продолжительность : 1 ч. 14 м.
Вид битрейта : Постоянный
Битрейт : 192 Кбит/сек
Каналы : 2 канала
Расположение каналов : Front: L R
Частота : 48,0 КГц
Битовая глубина : 16 бит
Метод сжатия : С потерями
Размер потока : 102 Мбайт (3%)
Заголовок : DUB
Язык : Russian
Default : Да
Forced : Да
Аудио #2
Идентификатор : 3
Формат : AC-3
Формат/Информация : Audio Coding 3
Расширение режима : CM (complete main)
Идентификатор кодека : A_AC3
Продолжительность : 1 ч. 14 м.
Вид битрейта : Постоянный
Битрейт : 192 Кбит/сек
Каналы : 2 канала
Расположение каналов : Front: L R
Частота : 48,0 КГц
Битовая глубина : 16 бит
Метод сжатия : С потерями
Размер потока : 102 Мбайт (3%)
Заголовок : MVO
Язык : Russian
Default : Нет
Forced : Нет
Аудио #3
Идентификатор : 4
Формат : AC-3
Формат/Информация : Audio Coding 3
Расширение режима : CM (complete main)
Идентификатор кодека : A_AC3
Продолжительность : 1 ч. 14 м.
Вид битрейта : Постоянный
Битрейт : 448 Кбит/сек
Каналы : 6 каналов
Расположение каналов : Front: L C R, Side: L R, LFE
Частота : 48,0 КГц
Битовая глубина : 16 бит
Метод сжатия : С потерями
Размер потока : 238 Мбайт (7%)
Заголовок : VO (Михалёв)
Язык : Russian
Default : Нет
Forced : Нет
Аудио #4
Идентификатор : 5
Формат : DTS
Формат/Информация : Digital Theater Systems
Идентификатор кодека : A_DTS
Продолжительность : 1 ч. 14 м.
Вид битрейта : Постоянный
Битрейт : 1510 Кбит/сек
Каналы : 6 каналов
Расположение каналов : Front: L C R, Side: L R, LFE
Частота : 48,0 КГц
Битовая глубина : 24 бит
Метод сжатия : С потерями
Задержка видео : 11 мс.
Размер потока : 802 Мбайт (23%)
Заголовок : ENG
Язык : English
Default : Нет
Forced : Нет
Текст #1
Идентификатор : 6
Формат : UTF-8
Идентификатор кодека : S_TEXT/UTF8
Идентификатор кодека/Информация : UTF-8 Plain Text
Заголовок : Rus Sub
Язык : Russian
Default : Да
Forced : Да
Текст #2
Идентификатор : 7
Формат : UTF-8
Идентификатор кодека : S_TEXT/UTF8
Идентификатор кодека/Информация : UTF-8 Plain Text
Заголовок : Eng Sub
Язык : English
Default : Нет
Forced : Нет
Меню
00:00:00.000 : en:00:00:00.000
00:03:15.612 : en:00:03:15.612
00:06:47.324 : en:00:06:47.324
00:11:53.504 : en:00:11:53.504
00:19:58.697 : en:00:19:58.697
00:22:38.190 : en:00:22:38.190
00:25:25.190 : en:00:25:25.190
00:30:53.185 : en:00:30:53.185
00:34:48.044 : en:00:34:48.044
00:38:21.674 : en:00:38:21.674
00:43:26.145 : en:00:43:26.145
00:47:36.228 : en:00:47:36.228
00:50:42.665 : en:00:50:42.665
00:56:07.239 : en:00:56:07.239
00:58:32.884 : en:00:58:32.884
01:02:34.709 : en:01:02:34.709
01:05:15.036 : en:01:05:15.036
01:09:24.452 : en:01:09:24.452
Не забываем оставлять комментарии к релизу, мне интересно Ваше мнение!

_________________
Показать сообщения:    

Текущее время: Сегодня 22:34

Часовой пояс: GMT



Вы не можете начинать темы
Вы не можете отвечать на сообщения
Вы не можете редактировать свои сообщения
Вы не можете удалять свои сообщения
Вы не можете голосовать в опросах
Вы не можете прикреплять файлы к сообщениям
Вы не можете скачивать файлы