Важное объявление!
У Нас Все раздачи мультитрекерные, при нуле пиров в релизах, можете смело вставать на закачку!
 
Автор Сообщение

HUNTER

Стаж:
4 года 4 месяца
Сообщений:
56848

Репутация: 101

[+] [-]
Вне форума [Профиль] [ЛС]

Великий диктатор / The Great Dictator
Страна: США
Жанр: драма, комедия, военный
Год выпуска: 1940
Продолжительность: 02:05:36
Перевод: Профессиональный (многоголосый закадровый)
Cубтитры: русские, английские
Оригинальная аудиодорожка: английский-Режиссер: Чарльз Чаплин / Charles Chaplin
В ролях: Чарльз Чаплин, Полетт Годдард, Джек Оуки, Реджинальд Гардинер, Генри Даниэль, Билли Гилберт, Грейс Хейл, Картер ДеХэйвен, Эмма Данн, Пауль Вайгель, Честер Конклин, Эстер Майкелсон, Морис Москович, Хэнк Манн, Рудольф Андерс, Бернард Горси, Эдди Данн, Нита Пайк, Джордж Линн (I), Флоренс Райт, Эдди Гриббон, Дон Броди
Описание: Политическая сатира.
Первый полностью звуковой фильм Чарльза Чаплина. Он играет сразу две роли: фашистского диктатора Аденоида Хинкеля (недвусмысленно загримированной под Гитлера) и еврея - парикмахера, который как две капли воды похож на него.
IMDb || КиноПоиск-Тип релиза: BDRemux 1080p
Контейнер: MKV
Видео: MPEG-4 AVC Video, 1920x1080 at 23.976 fps, ~25998 kbps
Аудио#1: Russian: 48 kHz, AC3, 2.0 ch, 192 kbps |Многоголосый закадровый|
Аудио#2: English: 48 kHz, LPCM, 1.0 ch, 1152 kbps
Аудио#3: English: 48 kHz, AC3, 1.0 ch, 192 kbps |Commentary by performer and author Dan Kamin and silent-film historian Hooman Mehran|
Формат субтитров: softsub (SRT)
Сэмпл

MediaInfo

General
Unique ID : 208864891979388616007000843947852326065 (0x9D21EA3C178CA1E19137B0BA2CAE64B1)
Complete name : The Great Dictator.1940.CC. BDRemux. rutracker.mkv
Format : Matroska
Format version : Version 2
File size : 24.1 GiB
Duration : 2h 5mn
Overall bit rate mode : Variable
Overall bit rate : 27.4 Mbps
Movie name : Release for RuTracker
Encoded date : UTC 2014-01-25 03:09:16
Writing application : mkvmerge v5.0.1 ('Es ist Sommer') built on Nov 6 2011 16:23:40
Writing library : libebml v1.2.2 + libmatroska v1.3.0
Video
ID : 1
Format : AVC
Format/Info : Advanced Video Codec
Format profile : High@L4.1
Format settings, CABAC : Yes
Format settings, ReFrames : 4 frames
Codec ID : V_MPEG4/ISO/AVC
Duration : 2h 5mn
Bit rate mode : Variable
Maximum bit rate : 37.0 Mbps
Width : 1 920 pixels
Height : 1 080 pixels
Display aspect ratio : 16:9
Frame rate : 23.976 fps
Color space : YUV
Chroma subsampling : 4:2:0
Bit depth : 8 bits
Scan type : Progressive
Title : The Great Dictator.1940.CC. BDRemux. rutracker
Language : English
Default : Yes
Forced : No
Audio #1
ID : 2
Format : AC-3
Format/Info : Audio Coding 3
Mode extension : CM (complete main)
Codec ID : A_AC3
Duration : 2h 5mn
Bit rate mode : Constant
Bit rate : 192 Kbps
Channel(s) : 2 channels
Channel positions : Front: L R
Sampling rate : 48.0 KHz
Bit depth : 16 bits
Compression mode : Lossy
Stream size : 172 MiB (1%)
Language : Russian
Default : Yes
Forced : No
Audio #2
ID : 3
Format : PCM
Codec ID : A_PCM/INT/LIT
Duration : 2h 5mn
Bit rate mode : Constant
Sampling rate : 48.0 KHz
Bit depth : 24 bits
Language : English
Default : No
Forced : No
Audio #3
ID : 4
Format : AC-3
Format/Info : Audio Coding 3
Mode extension : CM (complete main)
Codec ID : A_AC3
Duration : 2h 5mn
Bit rate mode : Constant
Bit rate : 192 Kbps
Channel(s) : 1 channel
Channel positions : Front: C
Sampling rate : 48.0 KHz
Bit depth : 16 bits
Compression mode : Lossy
Stream size : 172 MiB (1%)
Title : commentary
Language : English
Default : No
Forced : No
Text #1
ID : 5
Format : UTF-8
Codec ID : S_TEXT/UTF8
Codec ID/Info : UTF-8 Plain Text
Title : перевод Антона Шумова
Language : Russian
Default : No
Forced : No
Text #2
ID : 6
Format : UTF-8
Codec ID : S_TEXT/UTF8
Codec ID/Info : UTF-8 Plain Text
Title : перевод Михаила Абрамова
Language : Russian
Default : No
Forced : No
Text #3
ID : 7
Format : UTF-8
Codec ID : S_TEXT/UTF8
Codec ID/Info : UTF-8 Plain Text
Title : перевод Wailer
Language : Russian
Default : No
Forced : No
Text #4
ID : 8
Format : UTF-8
Codec ID : S_TEXT/UTF8
Codec ID/Info : UTF-8 Plain Text
Language : English
Default : No
Forced : No
Menu
00:00:00.000 : en:1. Opening Credits
00:02:23.977 : en:2. The World War, 1918
00:08:25.046 : en:3. Behind Enemy Lines
00:14:33.623 : en:4. "Hynkel Party Takes Power!"
00:23:58.437 : en:5. Life in the ghetto
00:28:03.765 : en:6. The barber returns
00:33:49.819 : en:7. "One of my friends"
00:37:41.217 : en:8. Hynkel keeps busy
00:43:34.612 : en:9. "Too good to be true"
00:49:36.390 : en:10. "Emperor of the world"
00:56:17.916 : en:11. Barber in the ghetto
01:00:04.726 : en:12. New message from Hynkel
01:05:45.650 : en:13. Storm troopers return
01:10:25.555 : en:14. Coin in the pudding
01:17:28.936 : en:15. Out of the ghetto
01:25:46.600 : en:16. Plans for Osterlich
01:30:07.444 : en:17. Napaloni's visit
01:39:38.514 : en:18. Hynkel's maneuvers
01:49:56.757 : en:19. "You're invading Osterlich"
01:55:52.779 : en:20. "The world awaits your word"

Скриншоты

Kinowelt vs Criterion _______________________

_________________
Показать сообщения:    

Текущее время: Сегодня 22:16

Часовой пояс: GMT



Вы не можете начинать темы
Вы не можете отвечать на сообщения
Вы не можете редактировать свои сообщения
Вы не можете удалять свои сообщения
Вы не можете голосовать в опросах
Вы не можете прикреплять файлы к сообщениям
Вы не можете скачивать файлы
Наши партнеры: интернет магазин Ивановского трикотажа textilla.ru