Важное объявление!
У Нас Все раздачи мультитрекерные, при нуле пиров в релизах, можете смело вставать на закачку!
 
Автор Сообщение

HUNTER

Стаж:
4 года 4 месяца
Сообщений:
56798

Репутация: 101

[+] [-]
Вне форума [Профиль] [ЛС]

Великие преступления и процессы 20-века. История Аль Капоне / Great crimes and trials of the twentieth century. The Story of Al Capone
Дата/Год выпуска: 1995
Страна: Великобритания
Жанр: Документальный
Продолжительность: 00:26:37
Перевод: Авторский (одноголосый закадровый)
Доп. инфо о переводе: П.Карцев
Русские субтитры: нет
Оригинальная аудиодорожка: нет
Описание: Документальный сериал BBC расскажет вам о самых громких и загадочных преступлениях ХХ века, многие из которых не раскрыты до сих пор
Альфонс Габриэль Капоне или Аль Капоне (итал. Alfonso Capone; 17 января 1899 — 25 января 1947) — знаменитый американский гангстер, действовавший в 1920—1930-х годах на территории Чикаго. Под прикрытием мебельного бизнеса занимался бутлегерством, игорным бизнесом и сутенёрством. Яркий представитель организованной преступности США, зародившейся и существующей там под влиянием итальянской мафии. Известен также под прозвищем Лицо со шрамом
Доп. информация: Оцифровка VHS (личный архив) и получение VHSRip alenavova
Эксклюзив для rutracker.org. При размещении данного релиза на других сайтах ссылка на автора alenavova обязательна.

Релиз
Сэмпл: https://yadi.sk/i/-9f_Mg3QeQHTK
качество: VHSRip
формат: MPG
Видео: MPEG2 Video 720x576 (4:3) 25fps
Аудио: MPEG Audio 48000Hz stereo 192kbps

MediaInfo

Великие преступления и процессы 20-века. История Аль Капоне (Карцев).mpgFormat : MPEG-PSFile size : 1.17 GiBDuration : 26mn 37sOverall bit rate mode : VariableOverall bit rate : 6 310 KbpsWriting library : (c) 1998-2009 Womble Multimedia, Inc. / MPEG Video Wizard (03/2009) / Dec 9 2009
VideoID : 224 (0xE0)Format : MPEG VideoFormat version : Version 2Format profile : Main@MainFormat settings, BVOP : YesFormat settings, Matrix : DefaultFormat settings, GOP : M=3, N=15Duration : 26mn 37sBit rate mode : VariableBit rate : 6 000 KbpsWidth : 720 pixelsHeight : 576 pixelsDisplay aspect ratio : 4:3Frame rate : 25.000 fpsStandard : PALColor space : YUVChroma subsampling : 4:2:0Bit depth : 8 bitsScan type : ProgressiveCompression mode : LossyBits/(Pixel*Frame) : 0.579Time code of first frame : 00:00:00:00Time code source : Group of pictures headerStream size : 1.11 GiB (95%)Writing library : (c) 1998-2009 Womble Multimedia, Inc. / MPEG Video Wizard (03/2009) / Dec 9 2009Color primaries : BT.601 PALTransfer characteristics : BT.470 System B, BT.470 System GMatrix coefficients : BT.601
AudioID : 192 (0xC0)Format : MPEG AudioFormat version : Version 1Format profile : Layer 2Duration : 26mn 37sBit rate mode : ConstantBit rate : 192 KbpsChannel(s) : 2 channelsSampling rate : 48.0 KHzCompression mode : LossyStream size : 36.6 MiB (3%)
Menu

Скриншоты



_________________
Показать сообщения:    

Текущее время: Сегодня 03:20

Часовой пояс: GMT



Вы не можете начинать темы
Вы не можете отвечать на сообщения
Вы не можете редактировать свои сообщения
Вы не можете удалять свои сообщения
Вы не можете голосовать в опросах
Вы не можете прикреплять файлы к сообщениям
Вы не можете скачивать файлы