Важное объявление!
У Нас Все раздачи мультитрекерные, при нуле пиров в релизах, можете смело вставать на закачку!
 
Автор Сообщение

HUNTER

Стаж:
4 года 4 месяца
Сообщений:
56719

Репутация: 101

[+] [-]
Вне форума [Профиль] [ЛС]

Великая война.Война на море
Год выпуска: 2012
Страна: Россия. Первый канал
Жанр: Документальный
Продолжительность: 00:55:10
Перевод: Не требуется
Русские субтитры: нет
Режиссеры: Анна Граждан, Артем Драбкин, Алексей Исаев
Описание: Одна серия из сериала "Великая война". Посвящена ВМФ в ВОВ.
Боевую готовность № 1 на флоте объявили незадолго до полуночи 21 июня 1941 года. Немцы и их союзники финны пытались полностью блокировать советские морские перевозки. К 1942 году немцам понадобилась долгосрочная защита морских коммуникаций. Командование Кригсмарине делало ставку на мины. Советские подводники удачно действовали на Балтике. Советские эсминцы Северного флота вместе с английскими кораблями участвовали в сопровождении транспортов, прикрывали их от атак авиации и подводных лодок. Вышел Приказ Верховного Главнокомандующего от 22 июля 1945 года: «Флот до конца выполнил свой долг перед Родиной»...
Доп. информация: Видеозахват 2013.07.28
сэмпл: http://multi-up.com/928518
качество: IPTVRip
формат: AVI
Видео: XviD MPEG-4 Visual (H.263), 704x400, (16x9), ~1650 kbps, 25 fps
Аудио: MP3, ~128 kbps, 48 kHz, 2 сh mono

MediaInfo

General
Complete name :\Великая война\Великая война.Война на море. 2012.avi
Format : AVI
Format/Info : Audio Video Interleave
File size : 705 MiB
Duration : 55mn 10s
Overall bit rate : 1 788 Kbps
Movie name : Velikaja.voina.Voina.na.more
Writing application : VirtualDubMod 1.5.10.2 (build 2540/release)
Writing library : VirtualDubMod build 2540/release
Comment : IPTVRip by Smeagol6666 (2013.07.28)
Video
ID : 0
Format : MPEG-4 Visual
Format profile : Simple@L5
Format settings, BVOP : No
Format settings, QPel : No
Format settings, GMC : No warppoints
Format settings, Matrix : Default (H.263)
Codec ID : XVID
Codec ID/Hint : XviD
Duration : 55mn 10s
Bit rate : 1 650 Kbps
Width : 704 pixels
Height : 400 pixels
Display aspect ratio : 16:9
Frame rate : 25.000 fps
Color space : YUV
Chroma subsampling : 4:2:0
Bit depth : 8 bits
Scan type : Progressive
Compression mode : Lossy
Bits/(Pixel*Frame) : 0.234
Stream size : 651 MiB (92%)
Writing library : XviD 63
Audio
ID : 1
Format : MPEG Audio
Format version : Version 1
Format profile : Layer 3
Mode : Joint stereo
Mode extension : MS Stereo
Codec ID : 55
Codec ID/Hint : MP3
Duration : 55mn 10s
Bit rate mode : Constant
Bit rate : 128 Kbps
Channel count : 2 channels
Sampling rate : 48.0 KHz
Compression mode : Lossy
Stream size : 50.5 MiB (7%)
Alignment : Split accross interleaves
Interleave, duration : 40 ms (1.00 video frame)
Interleave, preload duration : 500 ms

Скриншоты

Скринлист


_________________
Показать сообщения:    

Текущее время: Сегодня 03:46

Часовой пояс: GMT



Вы не можете начинать темы
Вы не можете отвечать на сообщения
Вы не можете редактировать свои сообщения
Вы не можете удалять свои сообщения
Вы не можете голосовать в опросах
Вы не можете прикреплять файлы к сообщениям
Вы не можете скачивать файлы