Важное объявление!
У Нас Все раздачи мультитрекерные, при нуле пиров в релизах, можете смело вставать на закачку!
 
Автор Сообщение

димитри37

Стаж:
3 года 9 месяцев
Сообщений:
1237

Репутация: 127

[+] [-]
Вне форума [Профиль] [ЛС]

Ведьма войны / Rebelle
Страна: Канада
Жанр: Драма,военный
Год выпуска: 2012
Продолжительность: 01:26:26
Перевод: Профессиональный (многоголосый закадровый)
Лицензия
Cубтитры: нет
Оригинальная аудиодорожка: нет
Режиссер: Ким Нгуйен / Kim Nguyen
В ролях: Рашель Мванза
Ален Лино Мик Эли Бастьен
Серж Каниинда
Мизинга Мвинга
Ральф Проспер
Жан Кабуя
Дайан Увамахоро
Юпитер Боконджи
Старлетт Матата
Алекс Херабо

Описание: Гражданская война в Африке. После того, как родную деревню Комоны поджигают солдаты повстанческой армии, а её родители погибают, 12-летняя девочка становится ребёнком-воином. Командир отряда, в котором оказывается Комона, не только заставляет ребёнка учиться пользоваться оружием, но и ублажать его собственные сексуальных прихоти. Комона влюбляется в светловолосого мальчика, немногим старшего её самой, и вместе с ним сбегает из отряда.
Награды и номинации:
Оскар, 2013 год
Номинации (1):
Лучший фильм на иностранном языке — «Канада»
Берлинский кинофестиваль, 2012 год
Победитель (2):
Серебряный Медведь за лучшую женскую роль (Рашель Мванза)
Приз экуменического (христианского) жюри - особое упоминание (конкурсная программа)
Номинации (1):
Золотой Медведь
Доп. информация: IMDb: 7.00 (2 454)
Качество видео: DVDRip
Формат видео: AVI
Видео: Xvid 688x368 25.00fps 2212kbps
Аудио: Dolby AC3 48000Hz stereo 192kbps

MediaInfo

Format : AVI
Format/Info : Audio Video Interleave
File size : 1.46 GiB
Duration : 1h 26mn
Overall bit rate : 2 415 Kbps
Writing application : VirtualDubMod 1.5.10.3 | www.virtualdub-fr.org || (build 2550/release)
Writing library : VirtualDubMod build 2550/release
Video
ID : 0
Format : MPEG-4 Visual
Format profile : Advanced Simple@L5
Format settings, BVOP : 1
Format settings, QPel : No
Format settings, GMC : No warppoints
Format settings, Matrix : Default (H.263)
Codec ID : XVID
Codec ID/Hint : XviD
Duration : 1h 26mn
Bit rate : 2 213 Kbps
Width : 688 pixels
Height : 368 pixels
Display aspect ratio : 1.870
Frame rate : 25.000 fps
Color space : YUV
Chroma subsampling : 4:2:0
Bit depth : 8 bits
Scan type : Progressive
Compression mode : Lossy
Bits/(Pixel*Frame) : 0.350
Stream size : 1.34 GiB (92%)
Writing library : XviD 1.2.1 (UTC 2008-12-04)
Audio
ID : 1
Format : AC-3
Format/Info : Audio Coding 3
Mode extension : CM (complete main)
Codec ID : 2000
Duration : 1h 26mn
Bit rate mode : Constant
Bit rate : 192 Kbps
Channel(s) : 2 channels
Channel positions : Front: L R
Sampling rate : 48.0 KHz
Bit depth : 16 bits
Compression mode : Lossy
Stream size : 119 MiB (8%)
Alignment : Split accross interleaves
Interleave, duration : 40 ms (1.00 video frame)
Interleave, preload duration : 500 ms

Скриншоты





Показать сообщения:    

Текущее время: Сегодня 04:46

Часовой пояс: GMT



Вы не можете начинать темы
Вы не можете отвечать на сообщения
Вы не можете редактировать свои сообщения
Вы не можете удалять свои сообщения
Вы не можете голосовать в опросах
Вы не можете прикреплять файлы к сообщениям
Вы не можете скачивать файлы
Наши партнеры: интернет магазин Ивановского трикотажа textilla.ru