Важное объявление!
У Нас Все раздачи мультитрекерные, при нуле пиров в релизах, можете смело вставать на закачку!
 
Автор Сообщение

Shalun

Стаж:
4 года 4 месяца
Сообщений:
802

Репутация: 123

[+] [-]
Вне форума [Профиль] [ЛС]

-Вдребезги-
Жанр: "черная" комедия, трэш
Год выпуска: 2011
Продолжительность: 01:29:15-Режиссер: Роман Каримов
В ролях: Александр Плющев, Кристина Казурова, Евгения Абрамова, Павел Дикан, Тимур Крючков, Александр Кабик, Андрис Гросс, Ингрид Олеринская, Полина Иосилевич, Никита Дювбанов, Вячеслав Дьяченко, Александр Дульщиков, Дмитрий Смолев, Алексей Юрин, Юлия Гладкая, Антон Торопцев, Дарья Чаруша, Ольга Кузьменкова, Артем Душкин, Иван Николаев, Равшана Куркова, Артем Ткаченко, Ирина Вилкова, Владимир Кадацкий
Описание: Что делать с людьми, которые нам так мешают в нашей жизни? Может, их убить? А можем ли мы убить? А кто может убить? Две девушки-маньячки сбивают велосипедиста, убивают педофила, угоняют машину у гламурного подонка. Известный ди-джей ведет скандальное шоу, где прикалывается над слушателями. После очередного эфира ди-джея похищают. Жена, мечтающая порвать с мужем, приглашает на день рождения босса-любовника. Пока она ходила за сигаретами, в доме происходит убийство. Пути героев этих историй, составляющих абсурдно-жестокую "черную" комедию, пересекаются на загородном шоссе, когда судьба сама расставляет все точки над "ё"...- -Качество видео: DVDRip-AVC [DVD9]
Формат видео: MKV
Видео: H.264, 720x440@1024x440 (2.35:1); 25 fps; 1812 kbps; 0.23 bit/pixel
Аудио: AC3, 6 ch, 48 kHz, ~384.00 kbps

MediaInfo

General
Unique ID : 171220491521752008485356770922675526636 (0x80CFDDFEF2A14ED998BBD45C7DB75BEC)
Complete name : Vdrebezgi.2011.DVDRip.x264.potroks.mkv
Format : Matroska
File size : 1.37 GiB
Duration : 1h 29mn
Overall bit rate : 2 190 Kbps
Movie name : -=POTROKS=-
Encoded date : UTC 2011-11-16 02:48:55
Writing application : mkvmerge v4.9.1 ('Ich will') сборка от Jul 11 2011 23:53:15
Writing library : libebml v1.2.1 + libmatroska v1.1.1
Video
ID : 1
Format : AVC
Format/Info : Advanced Video Codec
Format profile : High@L4.1
Format settings, CABAC : Yes
Format settings, ReFrames : 10 frames
Format settings, GOP : M=1, N=52
Codec ID : V_MPEG4/ISO/AVC
Duration : 1h 29mn
Bit rate : 1 812 Kbps
Width : 720 pixels
Height : 440 pixels
Display aspect ratio : 2.35:1
Original display aspect ratio : 2.35:1
Frame rate : 25.000 fps
Color space : YUV
Chroma subsampling : 4:2:0
Bit depth : 8 bits
Scan type : Progressive
Bits/(Pixel*Frame) : 0.229
Stream size : 1.10 GiB (80%)
Title : Vdrebezgi.2011.DVDRip.x264.potroks
Writing library : x264 core 115 r1937 aa21558
Encoding settings : cabac=1 / ref=10 / deblock=1:-3:-2 / analyse=0x3:0x133 / me=umh / subme=10 / psy=1 / psy_rd=1.00:0.10 / mixed_ref=1 / me_range=32 / chroma_me=1 / trellis=2 / 8x8dct=1 / cqm=0 / deadzone=21,11 / fast_pskip=1 / chroma_qp_offset=-3 / threads=9 / sliced_threads=0 / nr=0 / decimate=1 / interlaced=0 / bluray_compat=0 / constrained_intra=0 / bframes=3 / b_pyramid=2 / b_adapt=2 / b_bias=0 / direct=3 / weightb=1 / open_gop=0 / weightp=2 / keyint=250 / keyint_min=25 / scenecut=40 / intra_refresh=0 / rc_lookahead=60 / rc=2pass / mbtree=1 / bitrate=1812 / ratetol=1.0 / qcomp=0.60 / qpmin=0 / qpmax=69 / qpstep=4 / cplxblur=20.0 / qblur=0.5 / ip_ratio=1.40 / aq=1:1.20
Language : English
Audio
ID : 2
Format : AC-3
Format/Info : Audio Coding 3
Mode extension : CM (complete main)
Codec ID : A_AC3
Duration : 1h 29mn
Bit rate mode : Constant
Bit rate : 384 Kbps
Channel(s) : 6 channels
Channel positions : Front: L C R, Side: L R, LFE
Sampling rate : 48.0 KHz
Bit depth : 16 bits
Compression mode : Lossy
Delay relative to video : 1s 500ms
Stream size : 245 MiB (18%)
Language : Russian

Скриншоты



_________________
Показать сообщения:    

Текущее время: Сегодня 03:20

Часовой пояс: GMT



Вы не можете начинать темы
Вы не можете отвечать на сообщения
Вы не можете редактировать свои сообщения
Вы не можете удалять свои сообщения
Вы не можете голосовать в опросах
Вы не можете прикреплять файлы к сообщениям
Вы не можете скачивать файлы