Важное объявление!
У Нас Все раздачи мультитрекерные, при нуле пиров в релизах, можете смело вставать на закачку!
 
Автор Сообщение

димитри37

Стаж:
3 года 9 месяцев
Сообщений:
1237

Репутация: 127

[+] [-]
Вне форума [Профиль] [ЛС]

Вдовы
Жанр: война, драма
Год выпуска: 1976
Продолжительность: 01:24:59
Режиссёр: Сергей Микаэлян
В ролях: Галина Макарова, Галина Скоробогатова, Геннадий Ложкин, Борислав Брондуков, Нина Мазаева, Нина Мамаева, Раиса Максимова, Михаил Погоржельский, Владимир Пицек, Лариса Чикурова, Борис Морозов, Юрий Каюров, Павел Кормунин, Любовь Шустова, Игорь Безяев, Григорий Михайлов, Виктор Степанов, Эдуард Хохлов, Юрий Дубровин, Елена Цыплакова, Людмила Тимофеева, Саша Марченко, Анатолий Рудаков, Татьяна Волкова, Марина Гаврилова, Екатерина Мелентьева
Описание: Две односельчанки, Александра Матвеевна Громова и Елизавета Егоровна Петюнина, во время Великой Отечественной войны нашли и похоронили недалеко от своего села двух погибших солдат, при которых не было никаких документов, кроме залитого кровью обрывка фотографии. Потеряв на войне всех близких, вдовы ухаживают за "своей" могилкой и живут вместе, помогая друг другу, делясь последним. К очередной годовщине Победы районное начальство решает перезахоронить останки воинов на площади райцентра. А обрывок фотографии попадает на газетную полосу, и это вызывает совсем неожиданную, но всё же понятную реакцию: люди узнают на фото кого-то из своих погибших, и со всех концов страны к вдовам приходят письма со словами благодарности за сохранение могилы отца, брата, сына, жениха, друга. А потом начинают съезжаться люди, каждый из которых уверен, что это именно его пропавший в войну дорогой человек лежит здесь…
Доп. информация:
Сценарий: Юлий Дунский, Валерий Фрид
Оператор: Владимир Чумак
Художник: Грачья Мекинян
Ограничения на просмотр: для любой зрительской аудитории

Интересные факты

  • Сюжет фильма основан на реальных событиях, начало которым было положено опубликованным в газете «Труд» очерком кинодраматурга и журналиста Льва Аркадьева. Очерк был напечатан накануне празднования двадцатилетия Победы в Великой Отечественной войне, сопровождался публикацией фотографии неизвестного солдата и имел широкий отклик среди читателей.
  • Через несколько лет Львом Аркадьевым и Сергеем Микаэляном был написан черновой вариант сценария, который был отдан на доработку киносценаристам Юлию Дунскому и Валерию Фриду, создавшим окончательный вариант сценария.
  • Сразу после окончания непростых съёмок фильм «Вдовы» был запрещён к показу. Только через два года Председатель Государственного комитета Совета Министров СССР по кинематографии Филипп Ермаш показал фильм Л.И.Брежневу. На Генерального секретаря ЦК КПСС картина произвела сильное впечатление, он расчувствовался, прослезился, и фильм к показу был разрешён.
  • Через некоторое время в одном из своих докладов Л.И.Брежнев сказал о том, что необходимо проявлять больше заботы о вдовах. И всем вдовам на пять рублей были увеличены пенсии.

Подтверждение правильности выбранного AR

Качество видео: DVDRip
Формат видео: AVI
Видео: 704x352 (2.00:1), 25 fps, XviD 1.2.1, 2265 kbps avg, 0.36 bit/pixel
Аудио: 48 kHz, AC3 Dolby Digital, 2/0 (L,R) ch, 192 kbps

MediaInfo

Полное имя : Vdody.avi
Формат : AVI
Формат/Информация : Audio Video Interleave
Размер файла : 1,46 Гбайт
Продолжительность : 1 ч. 24 м.
Общий поток : 2467 Кбит/сек
Программа кодирования : VirtualDubMod 1.5.10.3 (build 2550/release)
Библиотека кодирования : VirtualDubMod build 2550/release
Видео
Идентификатор : 0
Формат : MPEG-4 Visual
Профиль формата : Advanced Simple@L5
Параметр BVOP формата : 2
Параметр QPel формата : Нет
Параметр GMC формата : Без точки перехода
Параметр матрицы формата : Выборочная
Идентификатор кодека : XVID
Идентификатор кодека/Подсказка : XviD
Продолжительность : 1 ч. 24 м.
Битрейт : 2265 Кбит/сек
Ширина : 704 пикселя
Высота : 352 пикселя
Соотношение сторон : 2,000
Частота кадров : 25,000 кадров/сек
Цветовое пространство : YUV
Субдискретизация насыщенности : 4:2:0
Битовая глубина : 8 бит
Тип развёртки : Прогрессивная
Метод сжатия : С потерями
Бит/(Пиксели*Кадры) : 0.366
Размер потока : 1,34 Гбайт (92%)
Библиотека кодирования : XviD 1.2.1 (UTC 2008-12-04)
Аудио
Идентификатор : 1
Формат : AC-3
Формат/Информация : Audio Coding 3
Расширение режима : CM (complete main)
Параметр Endianness формата : Big
Идентификатор кодека : 2000
Продолжительность : 1 ч. 24 м.
Вид битрейта : Постоянный
Битрейт : 192 Кбит/сек
Каналы : 2 канала
Расположение каналов : Front: L R
Частота : 48,0 КГц
Битовая глубина : 16 бит
Метод сжатия : С потерями
Размер потока : 117 Мбайт (8%)
Выравнивание : Разделение по промежуткам
Продолжительность промежутка : 40 мс. (1,00 видеокадр)
Время предзагрузки промежутка : 500 мс.

Скриншоты с названием и годом выпуска фильма

Сравнение

http://rutracker.org/forum/viewtopic.php?t=1809236 - с конкурентом
http://screenshotcomparison.com/comparison/19868/ + размер файла не соответствует тех. требованиям, не mod 16 (720х360), апскейл (после кропа остается 704х372)
Показать сообщения:    

Текущее время: Сегодня 18:28

Часовой пояс: GMT



Вы не можете начинать темы
Вы не можете отвечать на сообщения
Вы не можете редактировать свои сообщения
Вы не можете удалять свои сообщения
Вы не можете голосовать в опросах
Вы не можете прикреплять файлы к сообщениям
Вы не можете скачивать файлы
Наши партнеры: интернет магазин Ивановского трикотажа textilla.ru