Важное объявление!
У Нас Все раздачи мультитрекерные, при нуле пиров в релизах, можете смело вставать на закачку!
 
Автор Сообщение

mihis

[Профиль] [ЛС]

Вдали от дома / Miles from Home
Год выпуска: 1988
Страна: США, Braveworld Productions, J&M Entertainment
Жанр: Криминальная драма
Продолжительность: 01:43:33
Перевод: Профессиональный (двухголосый, закадровый) НТВ+
Субтитры: Нет
Режиссер: Гэри Синиз
В ролях: Ричард Гир, Брайан Деннехи, Пенелопа Энн Миллер, Хелен Хант, Джейсон Кэмпбелл, Остин Бемгарнер, Ларри Полинг, Кевин Андерсон, Терри Кинни, Френсис Гуинан, Джудит Айви, Роберт Отис, Лори Меткаф, Джон Малкович, Майкл Толбот, Джеймс Клэнси
Описание: 20 лет ферма Робертсов процветала, но после смерти отца дела семьи пришли в упадок. И когда банк за долги решил отнять ферму, братья Фрэнк и Терри сожгли ее и пустились в бега. Но однажды, переступив опасную черту, остановиться будет очень сложно.

Качество: HDTVRip
Формат: AVI
Видео кодек: XviD
Аудио кодек: AC3
Видео: 720x400 (1.80:1), 25 fps, XviD build 50 ~1799 kbps avg, 0.25 bit/pixel
Аудио: 48 kHz, AC3 Dolby Digital, 2/0 (L,R) ch, ~192 kbps

Награды

Каннский кинофестиваль, 1988 год
Номинации (1):
Золотая пальмовая ветвь

MediaInfo

Общее
Полное имя : D:\Video\Вдали от дома - Miles from Home [Rip by Ledy_X].avi
Формат : AVI
Формат/Информация : Audio Video Interleave
Размер файла : 1,45 Гбайт
Продолжительность : 1 ч. 43 м.
Общий поток : 2002 Кбит/сек
Название фильма : Вдали от дома - Miles from Home [Rip by Ledy_X]
Режиссёр : Rip by Ledy_X
Программа кодирования : VirtualDubMod 1.5.10.3 | www.virtualdub-fr.org || (build 2550/release)
Правообладатель : Edich2
Примечание : RuTracker.org
Видео
Идентификатор : 0
Формат : MPEG-4 Visual
Профиль формата : Advanced Simple@L5
Параметр BVOP формата : 2
Параметр QPel формата : Нет
Параметр GMC формата : Без точки перехода
Параметр матрицы формата : Выборочная
Идентификатор кодека : XVID
Идентификатор кодека/Подсказка : XviD
Продолжительность : 1 ч. 43 м.
Битрейт : 1800 Кбит/сек
Ширина : 720 пикселей
Высота : 400 пикселей
Соотношение сторон : 16:9
Частота кадров : 25,000 кадров/сек
Цветовое пространство : YUV
Субдискретизация насыщенности : 4:2:0
Битовая глубина : 8 бит
Тип развёртки : Прогрессивная
Метод сжатия : С потерями
Бит/(Пиксели*Кадры) : 0.250
Размер потока : 1,30 Гбайт (90%)
Библиотека кодирования : XviD 1.2.1 (UTC 2008-12-04)
Аудио
Идентификатор : 1
Формат : AC-3
Формат/Информация : Audio Coding 3
Расширение режима : CM (complete main)
Параметр Endianness формата : Big
Идентификатор кодека : 2000
Продолжительность : 1 ч. 43 м.
Вид битрейта : Постоянный
Битрейт : 192 Кбит/сек
Каналы : 2 канала
Расположение каналов : Front: L R
Частота : 48,0 КГц
Битовая глубина : 16 бит
Метод сжатия : С потерями
Размер потока : 142 Мбайт (10%)
Выравнивание : Разделение по промежуткам
Продолжительность промежутка : 40 мс. (1,00 видеокадр)
Время предзагрузки промежутка : 500 мс.
 
Показать сообщения:    

Текущее время: Сегодня 09:07

Часовой пояс: GMT



Вы не можете начинать темы
Вы не можете отвечать на сообщения
Вы не можете редактировать свои сообщения
Вы не можете удалять свои сообщения
Вы не можете голосовать в опросах
Вы не можете прикреплять файлы к сообщениям
Вы не можете скачивать файлы