Важное объявление!
У Нас Все раздачи мультитрекерные, при нуле пиров в релизах, можете смело вставать на закачку!
 
Автор Сообщение

HUNTER

Стаж:
4 года 4 месяца
Сообщений:
56772

Репутация: 101

[+] [-]
Вне форума [Профиль] [ЛС]

Вдали от безумной толпы / Far from the Madding-
Год выпуска: 1967
Страна: Великобритания
Жанр: драма, мелодрама
Продолжительность: 02:50:40
Перевод: Профессиональный (многоголосый закадровый)
Оригинальная аудиодорожка: Английская
Cубтитры: Английские (полные, для слабослышащих)-Режиссер: Джон Шлезингер / John Schlesinger
В ролях: Джули Кристи, Теренс Стэмп, Питер Финч, Алан Бейтс, Фиона Уокер, Прунелла Рэнсом, Элисон Леггатт, Джулиан Сомерс, Джон Баррет-Описание:
Экранизация одноименного романа Томаса Харди.
Англия, 1874 год. Унаследовав от дядюшки богатую ферму, юная Батшиба Эвердин (Джули Кристи — «Вдали от нее», «Волшебная страна») энергично берется за дело, набрав себе рабочих. Берет она и разорившегося фермера Габриэла Оука — человека опытного и честного. Габриэл в свое время просил ее руки, но потерпел неудачу. Теперь ей предлагает руку и сердце сосед, зажиточный фермер. Встреча с самовлюбленным красавцем сержантом Фрэнком Троем становится роковой для Батшибы...-За дорожку спасибо Gorushka.
| IMDb | Сэмпл-Качество: BDRip 720p (VietHD)
Контейнер: MKV
Видео: x264, 1280x530 (2.41:1), 23.976 fps, 7534 kbps
Аудио 1: Русский AC3 2.0, 48 kHz, 192 kbps
Аудио 2: Английский AC3 5.1, 48 kHz, 640 kbps
Формат субтитров: softsub (SRT)

Скриншоты

Source vs VietHD


MI

nfo
MOVIE iNFO
GENRE.........: Drama, History, Romance
IMDB RATING...: 7,3/10 from 2.964 users
LINK..........: http://www.imdb.com/title/tt0061648/
RELEASE iNFO
RELEASE NAME..: Far.From.The.Madding.Crowd.1967.720p.BluRay.DD5.1.x264-VietHD
ENCODED DATE..: UTC 2015-03-09 05:05:34
RELEASE SIZE..: 9.95 GiB
RUNTIME.......: 2h 50mn
VIDEO CODEC...: x264, High@L4.1
FRAMERATE.....: 23.976 fps
BITRATE.......: 7 538 Kbps
RESOLUTION....: 1280x530
AUDIO.........: English AC3 5.1@640 Kbps
CHAPTERS......: Yes
SUBTITLES.....: English,English(SDH)
SOURCE........: Far from the Madding Crowd 1967 1080p Blu-ray AVC DTS-HD MA 5.1 (Thx buchanan!)
ENCODER.......: BodoiCuHo
NOTES
SCREENS: http://someimage.com/mkAf or http://imgbox.com/g/uXq2VkU6Cl
x264 iNFO
x264 [info]: frame I:1657 Avg QP:16.72 size:125917
x264 [info]: frame P:50392 Avg QP:18.10 size: 63261
x264 [info]: frame B:193470 Avg QP:20.19 size: 33400
x264 [info]: consecutive B-frames: 1.6% 2.1% 6.9% 16.7% 15.2% 44.0% 6.2% 2.5% 2.4% 1.0% 0.8% 0.5%
encoded 245519 frames, 8.123 fps, 7701.78 kb/s, 9401.8 MB
General
Unique ID : 186685647621828884148374752758561471544 (0x8C72590F987B173099066D84C6F77C38)
Complete name : Far.From.The.Madding.Crowd.1967.720p.BluRay.DD.x264-VietHD.mkv
Format : Matroska
Format version : Version 2
File size : 10.2 GiB
Duration : 2h 50mn
Overall bit rate : 8 536 Kbps
Movie name : Far from the Madding Crowd / Вдали от безумной толпы (1967) – RuTracker
Encoded date : UTC 2015-03-12 15:54:07
Writing application : mkvmerge v7.5.0 ('Glass Culture') 64bit built on Jan 4 2015 16:48:44
Writing library : libebml v1.3.1 + libmatroska v1.4.2
Attachements : cover.jpg
Video
ID : 1
Format : AVC
Format/Info : Advanced Video Codec
Format profile : High@L4.1
Format settings, CABAC : Yes
Format settings, ReFrames : 12 frames
Codec ID : V_MPEG4/ISO/AVC
Duration : 2h 50mn
Bit rate : 7 534 Kbps
Width : 1 280 pixels
Height : 530 pixels
Display aspect ratio : 2.40:1
Original display aspect rat : 2.40:1
Frame rate mode : Constant
Frame rate : 23.976 fps
Color space : YUV
Chroma subsampling : 4:2:0
Bit depth : 8 bits
Scan type : Progressive
Bits/(Pixel*Frame) : 0.463
Stream size : 8.98 GiB (88%)
Title : Far.From.The.Madding.Crowd.1967.720p.BluRay.DD5.1.x264-VietHD
Writing library : x264 core 144 r0+2574 9abcd72 t_mod_Custom [8-bit@all X86_64]
Encoding settings : cabac=1 / ref=12 / deblock=1:-3:-3 / analyse=0x3:0x133 / me=umh / subme=10 / psy=1 / fade_compensate=0.00 / psy_rd=1.15:0.00 / mixed_ref=1 / me_range=24 / chroma_me=1 / trellis=2 / 8x8dct=1 / cqm=0 / deadzone=21,11 / fast_pskip=1 / chroma_qp_offset=-2 / threads=12 / lookahead_threads=3 / sliced_threads=0 / nr=0 / decimate=1 / interlaced=0 / bluray_compat=0 / constrained_intra=0 / fgo=0 / bframes=11 / b_pyramid=2 / b_adapt=2 / b_bias=0 / direct=3 / weightb=1 / open_gop=0 / weightp=2 / keyint=250 / keyint_min=23 / scenecut=40 / intra_refresh=0 / rc=crf / mbtree=0 / crf=16.0000 / qcomp=0.60 / qpmin=0:0:0 / qpmax=69:69:69 / qpstep=4 / ip_ratio=1.40 / pb_ratio=1.30 / aq=4:0.60 / aq-sensitivity=10.00 / aq-factor=1.00:1.00:1.00 / aq2=0 / aq3=0
Language : English
Default : Yes
Forced : No
Matrix coefficients : BT.709
Color range : Limited
Audio #1
ID : 2
Format : AC-3
Format/Info : Audio Coding 3
Mode extension : CM (complete main)
Format settings, Endianness : Big
Codec ID : A_AC3
Duration : 2h 50mn
Bit rate mode : Constant
Bit rate : 192 Kbps
Channel(s) : 2 channels
Channel positions : Front: L R
Sampling rate : 48.0 KHz
Bit depth : 16 bits
Compression mode : Lossy
Stream size : 234 MiB (2%)
Title : MVO
Language : Russian
Default : Yes
Forced : No
Audio #2
ID : 3
Format : AC-3
Format/Info : Audio Coding 3
Mode extension : CM (complete main)
Format settings, Endianness : Big
Codec ID : A_AC3
Duration : 2h 50mn
Bit rate mode : Constant
Bit rate : 640 Kbps
Channel(s) : 6 channels
Channel positions : Front: L C R, Side: L R, LFE
Sampling rate : 48.0 KHz
Bit depth : 16 bits
Compression mode : Lossy
Stream size : 781 MiB (7%)
Title : Original
Language : English
Default : No
Forced : No
Text #1
ID : 4
Format : UTF-8
Codec ID : S_TEXT/UTF8
Codec ID/Info : UTF-8 Plain Text
Language : English
Default : No
Forced : No
Text #2
ID : 5
Format : UTF-8
Codec ID : S_TEXT/UTF8
Codec ID/Info : UTF-8 Plain Text
Title : SDH
Language : English
Default : No
Forced : No
Menu
00:00:00.000 : en:Chapter 01
00:03:00.180 : en:Chapter 02
00:05:33.666 : en:Chapter 03
00:13:21.675 : en:Chapter 04
00:17:23.542 : en:Chapter 05
00:19:52.232 : en:Chapter 06
00:24:14.035 : en:Chapter 07
00:28:15.193 : en:Chapter 08
00:33:19.747 : en:Chapter 09
00:38:05.616 : en:Chapter 10
00:41:39.788 : en:Chapter 11
00:45:16.255 : en:Chapter 12
00:50:20.058 : en:Chapter 13
00:53:22.490 : en:Chapter 14
00:59:02.747 : en:Chapter 15
01:05:38.935 : en:Chapter 16
01:08:57.842 : en:Chapter 17
01:16:12.776 : en:Chapter 18
01:20:22.484 : en:Chapter 19
01:24:58.301 : en:Chapter 20
01:29:04.922 : en:Chapter 21
01:34:05.765 : en:Chapter 22
01:40:53.756 : en:Chapter 23
01:45:47.591 : en:Chapter 24
01:46:54.658 : en:Chapter 25
01:48:36.718 : en:Chapter 26
01:53:09.032 : en:Chapter 27
01:58:01.365 : en:Chapter 28
02:00:56.290 : en:Chapter 29
02:05:40.658 : en:Chapter 30
02:10:18.477 : en:Chapter 31
02:13:12.526 : en:Chapter 32
02:18:47.902 : en:Chapter 33
02:21:39.365 : en:Chapter 34
02:23:42.363 : en:Chapter 35
02:26:46.047 : en:Chapter 36
02:32:03.823 : en:Chapter 37
02:34:57.746 : en:Chapter 38
02:38:30.501 : en:Chapter 39
02:42:26.111 : en:Chapter 40
02:46:44.160 : en:Chapter 41
02:48:31.476 : en:Chapter 42

_________________
Показать сообщения:    

Текущее время: Сегодня 17:10

Часовой пояс: GMT



Вы не можете начинать темы
Вы не можете отвечать на сообщения
Вы не можете редактировать свои сообщения
Вы не можете удалять свои сообщения
Вы не можете голосовать в опросах
Вы не можете прикреплять файлы к сообщениям
Вы не можете скачивать файлы