Важное объявление!
У Нас Все раздачи мультитрекерные, при нуле пиров в релизах, можете смело вставать на закачку!
 
Автор Сообщение

HUNTER

Стаж:
4 года 4 месяца
Сообщений:
56829

Репутация: 101

[+] [-]
Вне форума [Профиль] [ЛС]

Вакансия на жертву / Vacancy-
Страна: США
Студия: Screen Gems, Hal Lieberman Company
Жанр: Ужасы, триллер
Год выпуска: 2007
Продолжительность: 01:25:00-Перевод: Профессиональный (дублированный)
Cубтитры: русские, английские
Оригинальная аудиодорожка: английский-Режиссер: Нимрод Антал / Nimrod Antal
В ролях: Кейт Бекинсейл, Люк Уилсон, Фрэнк Уэйли, Итэн Эмбри, Скотт Дж. Андерсон, Марк Каселла, Дэвид Доути, Норм Комптон, Кэрин Мовер, Миган Годфри, Ким Стис, Эндрю Фисцелла, Дэйл Вэддингтон Хоровиц, Эрнест Мишко, Брайан Росс, Чевон Хикс, Чак Ламб, Кэри Мур, Ричи Варга
Описание: Когда посреди пустынной дороги у Дэвида и Эмми сломалась машина, супруги были вынуждены остановиться на ночь в маленьком придорожном отеле. Просматривая кассеты, которые нашлись в номере, они с изумлением обнаружили, что эти кошмарные садистские фильмы сняты именно в той самой комнате, где они находятся. Вне себя от ужаса, они пытаются бежать, но скрытые камеры, установленные по всему отелю, фиксируют каждое их движение, и каждый их шаг становится известен тем, кто намерен сделать Дэвида и Эмми главными героями очередного фильма ужасов…-Доп. информация: Релиз сделан из ремукса, скаченного в сети. Оттуда же взяты главы, аудиодорожки и субтитры. Меню самодельное. Двд собрал в DVD Lab. Видео сжато Pro Coder в 2 прохода по этой инструкции. За столь ценное руководство спасибо Mikky72. Отдельная благодарность уходит ZVNV, который стойко выдержал испытание моими глупыми и не очень вопросами Еще одно спасибо AlsKnight за решение проблемы с кадрами.-Релиз групп: -
СЭМПЛ
-Меню: Есть, на русском языке, статичное, озвученное-Тип релиза: DVD9 (Custom)
Контейнер: DVD-Video
Видео: NTSC 16:9 (720x480) VBR
Аудио : Русский (Dolby AC3, 6 ch, 448 кб/с, дубляж)
Аудио 2: Английский (Dolby AC3, 6 ch, 448 кб/с)-

MI исходника

Формат : BDAV
Формат/Информация : Blu-ray Video
Размер файла : 19,9 Гбайт
Продолжительность : 1 ч. 25 м.
Режим общего битрейта : Переменный
Общий поток : 33,6 Мбит/сек
Максимальный общий битрейт : 48,0 Мбит/сек
Видео
Идентификатор : 4113 (0x1011)
Идентификатор меню : 1 (0x1)
Формат : AVC
Формат/Информация : Advanced Video Codec
Профиль формата : High@L4.1
Параметр CABAC формата : Да
Параметр ReFrames формата : 2 кадра
Параметр GOP формата : M=1, N=10
Идентификатор кодека : 27
Продолжительность : 1 ч. 25 м.
Вид битрейта : Переменный
Битрейт : 27,1 Мбит/сек
Ширина : 1920 пикселей
Высота : 1080 пикселей
Соотношение сторон : 16:9
Частота кадров : 23,976 кадра/сек
Цветовое пространство : YUV
Субдискретизация насыщенности : 4:2:0
Битовая глубина : 8 бит
Тип развёртки : Прогрессивная
Бит/(Пиксели*Кадры) : 0.546
Размер потока : 16,1 Гбайт (81%)
Аудио #1
Идентификатор : 4352 (0x1100)
Идентификатор меню : 1 (0x1)
Формат : DTS
Формат/Информация : Digital Theater Systems
Профиль формата : MA / Core
Режим смешивания : Stream extension
Идентификатор кодека : 134
Продолжительность : 1 ч. 25 м.
Вид битрейта : Переменный
Битрейт : 2059 Кбит/сек / 1510 Кбит/сек
Каналы : 6 каналов
Расположение каналов : Front: L C R, Side: L R, LFE
Частота : 48,0 КГц
Битовая глубина : 16 бит
Метод сжатия : Без потерь / Lossy
Аудио #2
Идентификатор : 4353 (0x1101)
Идентификатор меню : 1 (0x1)
Формат : AC-3
Формат/Информация : Audio Coding 3
Расширение режима : CM (complete main)
Идентификатор кодека : 129
Продолжительность : 1 ч. 25 м.
Вид битрейта : Постоянный
Битрейт : 448 Кбит/сек
Каналы : 6 каналов
Расположение каналов : Front: L C R, Side: L R, LFE
Частота : 48,0 КГц
Битовая глубина : 16 бит
Метод сжатия : С потерями
Размер потока : 273 Мбайт (1%)
Аудио #3
Идентификатор : 4354 (0x1102)
Идентификатор меню : 1 (0x1)
Формат : AC-3
Формат/Информация : Audio Coding 3
Расширение режима : CM (complete main)
Идентификатор кодека : 129
Продолжительность : 1 ч. 25 м.
Вид битрейта : Постоянный
Битрейт : 640 Кбит/сек
Каналы : 6 каналов
Расположение каналов : Front: L C R, Side: L R, LFE
Частота : 48,0 КГц
Битовая глубина : 16 бит
Метод сжатия : С потерями
Размер потока : 390 Мбайт (2%)
Аудио #4
Идентификатор : 4355 (0x1103)
Идентификатор меню : 1 (0x1)
Формат : AC-3
Формат/Информация : Audio Coding 3
Расширение режима : CM (complete main)
Идентификатор кодека : 129
Продолжительность : 1 ч. 25 м.
Вид битрейта : Постоянный
Битрейт : 640 Кбит/сек
Каналы : 6 каналов
Расположение каналов : Front: L C R, Side: L R, LFE
Частота : 48,0 КГц
Битовая глубина : 16 бит
Метод сжатия : С потерями
Размер потока : 390 Мбайт (2%)
Аудио #5
Идентификатор : 4356 (0x1104)
Идентификатор меню : 1 (0x1)
Формат : AC-3
Формат/Информация : Audio Coding 3
Расширение режима : CM (complete main)
Идентификатор кодека : 129
Продолжительность : 1 ч. 25 м.
Вид битрейта : Постоянный
Битрейт : 640 Кбит/сек
Каналы : 6 каналов
Расположение каналов : Front: L C R, Side: L R, LFE
Частота : 48,0 КГц
Битовая глубина : 16 бит
Метод сжатия : С потерями
Размер потока : 390 Мбайт (2%)
Аудио #6
Идентификатор : 4357 (0x1105)
Идентификатор меню : 1 (0x1)
Формат : AC-3
Формат/Информация : Audio Coding 3
Расширение режима : CM (complete main)
Идентификатор кодека : 129
Продолжительность : 1 ч. 25 м.
Вид битрейта : Постоянный
Битрейт : 640 Кбит/сек
Каналы : 6 каналов
Расположение каналов : Front: L C R, Side: L R, LFE
Частота : 48,0 КГц
Битовая глубина : 16 бит
Метод сжатия : С потерями
Размер потока : 390 Мбайт (2%)
Текст #1
Идентификатор : 4615 (0x1207)
Идентификатор меню : 1 (0x1)
Формат : PGS
Идентификатор кодека : 144
Текст #2
Идентификатор : 4617 (0x1209)
Идентификатор меню : 1 (0x1)
Формат : PGS
Идентификатор кодека : 144
Текст #3
Идентификатор : 4623 (0x120F)
Идентификатор меню : 1 (0x1)
Формат : PGS
Идентификатор кодека : 144

DVDInfo

Size: 5.93 Gb ( 6 217 446 KBytes ) - DVD-9
Enabled regions: 1, 2, 3, 4, 5, 6, 7, 8
VTS_01 :
Play Length: 01:25:00
Video: NTSC 16:9 (720x480) VBR, Auto Pan&Scan
Audio:
Russian (Dolby AC3, 6 ch)
English (Dolby AC3, 6 ch)
Subtitles:
Russian
English
Menu Video:
NTSC 4:3 (720x480) VBR
Menu English Language Unit :
Root Menu

Скриншоты меню

Скриншоты

Скрипт

LoadPlugin("C:\Users\SkyWalker\Desktop\DGDecodeNV\DGDecodeNV.dll")
DGSource("project.dgi") #если в исходнике отсутствуют артефакты
LoadPlugin("C:\Program Files\AutoYUY2\AutoYUY2.dll") #более медленный, но качественный аналог ConvertToYUY2()
AutoYUY2()
LoadPlugin("C:\Program Files\ColorMatrix\ColorMatrix.dll")
ColorMatrix(mode="Rec.709->Rec.601", inputFR=false, clamp=0) #корректировка цветовой шкалы, если проверка показывает 16-235
AssumeFPS("ntsc_film")
BicubicResize(720, 480, 0, 0.5) #ресайз методом Catmull-Rom spline
AddBorders (0,0,0,0) #bbb=00

Программы, используемые при создание этого релиза

Видео
Rhozet Carbon Coder - конвертация видео
AviSynth - обработка видео
DGDecodeNV - индексирование
Програмы для разборки/сборки ДВД
PgcDemux - демукс исходного DVD
tsMuxeR - разборка ремукса
MuxMan - сборка видео
Работа со звуком
TranzcodeGUI - извлечение wav
Sonic Foundry Soft Encode - кодирование и сборка ac3 дорожки
Работа с субтитрами
DVDSubEdit - корректировка таймингов и расположения на экране субтитров
Работа с меню и реавторинг
Adobe Photoshop - редактирование меню
DVDReMakePro - реавторинг диска

Точка перехода


_________________
Показать сообщения:    

Текущее время: Сегодня 09:51

Часовой пояс: GMT



Вы не можете начинать темы
Вы не можете отвечать на сообщения
Вы не можете редактировать свои сообщения
Вы не можете удалять свои сообщения
Вы не можете голосовать в опросах
Вы не можете прикреплять файлы к сообщениям
Вы не можете скачивать файлы