Важное объявление!
У Нас Все раздачи мультитрекерные, при нуле пиров в релизах, можете смело вставать на закачку!
 
Автор Сообщение

HUNTER

Стаж:
4 года 4 месяца
Сообщений:
56772

Репутация: 101

[+] [-]
Вне форума [Профиль] [ЛС]

В трезвом уме и твердой памяти / Clean and Sober
4:3 NTSC R1

Слоган: «Thirty remarkable days in the life of an ordinary man»
Страна: США
Студия: Imagine Films Entertainment, Warner Bros.
Жанр: драма
Год выпуска: 1988
Продолжительность: 02:04:03
Перевод 1: Профессиональный (дублированный) - "Варус Видео"(Автор синхронного текста и режиссёр Сергей Клоков)
Перевод 2: Авторский (одноголосый закадровый) - Алексей Михалев
Cубтитры: английские[CC]
Оригинальная аудиодорожка: английский
Режиссер: Гленн Гордон Карон / Glenn Gordon Caron
В ролях: Майкл Китон, Кэти Бейкер, Морган Фриман, Тейт Донован, Генри Джудд Бэйкер, Клаудия Кристиан, Дж. Дэвид Красснер, Дэкин Мэтьюз, Мэри Катрин Мартин, Патриция Куинн ...
Описание: Брокер по недвижимости Дэрил Пойнтер, пристрастившийся к алкоголю и кокаину. Однажды утром он находит в своей постели труп женщины, умершей от передозировки, с которой познакомился накануне. По телефону ему сообщают, что с одного из его счетов пропала кругленькая сумма.
В панике, чтобы убежать от закона, Дэрил решает записаться в группу в центр реабилитации наркоманов, где он знакомится с крутым парнем Крэйгом, бывшим наркоманом, работающим в клинике консультантом. Он без труда «вычисляет» все приемы (трюки, уловки) Дэрила. Спустя какое-то время Дэрил начинает понимать, что, возможно, он оказался именно там, где нужно.
Доп. информация: Диск собран из Clean and Sober_1988_DVD5 R1 найденного в сети. (Который на постере)
Меню: Статичное, неозвученное, на английском.--Меню неотредактировано, переключение звуковых дорожек с пульта.
Фильм автоматически стартует с рус. звук. дорожкой(DUB).
--Спасибо за рус. дорожку(DUB) Irlandia
Спасибо за рус. дорожку(AVO) ochkarik1
-- --Clean and Sober_1988_DVD5 R1_Sample_.rar--Синхронизация звук. дорожек Нордер
За что ему превеликая благодарность
--Тип релиза: DVD5 (Custom)
Контейнер: DVD-Video
Видео: NTSC 4:3 (720x480) VBR, ~ 4897.82 kbps avg
Аудио 1: Russian, AC3, 2/0 (L,R) ch, 192 kbps, Delay 0 mSec - DUB "Варус Видео"
Аудио 2: Russian, AC3, 2/0 (L,R) ch, 192 kbps, Delay 0 mSec - AVO Алексей Михалев
Аудио 3: English, AC3, 2/0 (L,R) ch, 192 kbps, Delay 0 mSec
Формат субтитров: СС (Closed Captions)

MediaInfo

General
Complete name : I:\111\z_D_Disk\Clean and Sober_1988_DVD5 R1\VIDEO_TS\VTS_01_2.VOB
Format : MPEG-PS
File size : 1 024 MiB
Duration : 29mn 17s
Overall bit rate mode : Variable
Overall bit rate : 4 888 Kbps
Video
ID : 224 (0xE0)
Format : MPEG Video
Format version : Version 2
Format profile : Main@Main
Format settings, BVOP : Yes
Format settings, Matrix : Default
Format settings, GOP : M=3, N=12
Duration : 29mn 16s
Bit rate mode : Variable
Bit rate : 4 215 Kbps
Maximum bit rate : 7 500 Kbps
Width : 720 pixels
Height : 480 pixels
Display aspect ratio : 4:3
Frame rate : 23.976 fps
Color space : YUV
Chroma subsampling : 4:2:0
Bit depth : 8 bits
Scan type : Progressive
Scan order : 2:3 Pulldown
Compression mode : Lossy
Bits/(Pixel*Frame) : 0.509
Time code of first frame : 01:27:45:22
Time code source : Group of pictures header
GOP, Open/Closed : Open
Stream size : 883 MiB (86%)
Audio #1
ID : 189 (0xBD)-128 (0x80)
Format : AC-3
Format/Info : Audio Coding 3
Mode extension : CM (complete main)
Format settings, Endianness : Big
Muxing mode : DVD-Video
Duration : 29mn 17s
Bit rate mode : Constant
Bit rate : 192 Kbps
Channel(s) : 2 channels
Channel positions : Front: L R
Sampling rate : 48.0 KHz
Compression mode : Lossy
Delay relative to video : -732ms
Stream size : 40.2 MiB (4%)
Audio #2
ID : 189 (0xBD)-129 (0x81)
Format : AC-3
Format/Info : Audio Coding 3
Mode extension : CM (complete main)
Format settings, Endianness : Big
Muxing mode : DVD-Video
Duration : 29mn 17s
Bit rate mode : Constant
Bit rate : 192 Kbps
Channel(s) : 2 channels
Channel positions : Front: L R
Sampling rate : 48.0 KHz
Compression mode : Lossy
Delay relative to video : -732ms
Stream size : 40.2 MiB (4%)
Audio #3
ID : 189 (0xBD)-130 (0x82)
Format : AC-3
Format/Info : Audio Coding 3
Format profile : Dolby Digital
Mode extension : CM (complete main)
Format settings, Endianness : Big
Muxing mode : DVD-Video
Duration : 29mn 17s
Bit rate mode : Constant
Bit rate : 192 Kbps
Channel(s) : 2 channels
Channel positions : Front: L R
Sampling rate : 48.0 KHz
Compression mode : Lossy
Delay relative to video : -732ms
Stream size : 40.2 MiB (4%)
Text
ID : 224 (0xE0)-CC3
Format : EIA-608
Muxing mode, more info : Muxed in Video #1
Bit rate mode : Constant
Stream size : 0.00 Byte (0%)
Menu

DVDInfo

Title: Clean and Sober_1988_DVD5 R1
Size: 4.25 Gb ( 4 460 188,00 KBytes ) - DVD-5
Enabled regions: 1, 2, 3, 4, 5, 6, 7, 8
VTS_01 :
Play Length: 02:04:03+00:00:17+00:00:00
Video: NTSC 4:3 (720x480) VBR
Audio:
Russian, AC3, 2/0 (L,R) ch, 192 kbps, Delay 0 mSec
Russian, AC3, 2/0 (L,R) ch, 192 kbps, Delay 0 mSec
English, AC3, 2/0 (L,R) ch, 192 kbps, Delay 0 mSec
* Menus Information *
VIDEO_TS Menu
Video:
NTSC 4:3 (720x480) VBR
Auto Pan&Scan, Auto Letterboxed
Language Unit :
VTS_01 Menu
Video:
NTSC 4:3 (720x480) VBR
English Language Unit :
Root Menu

П. О.

PgcDemux 1.2.0.5 - разделение компонентов диска на файлы;
MuxMan DVD authoring Professional 1.4.4 - мультиплексирование и авторинг DVD;
DVDRemake Pro 3.6.4 - реавторинг DVD;
DVD Shrink 3.2 - Сэмпл
VLC - Скриншоты-
-
- -
-
-MuxMan version 1.4.4
new project database size 400, base f010018.
new pointer management list size 50.
new clipboard database size 20, base 2fd720.
18:07:54 Begin m2v survey of C:\Temp\Sober\VideoFile.m2v.
Accepted audio C:\Temp\Sober\AUD\Clean and Sober (1988) ДУБЛ синхр.ac3
Accepted audio C:\Temp\Sober\AUD\Clean and Sober (1988) AVO (А. Михалев) синхр.ac3
Accepted audio C:\Temp\Sober\AudioFile_80.ac3
18:11:39 End survey of C:\Temp\Sober\VideoFile.m2v.
18:17:23 Begin multiplex VTS01.
Title Segment List
Segment_1 non-seamless
Buffering audio track 1 file C:\Temp\Sober\AUD\Clean and Sober (1988) ДУБЛ синхр.ac3.
Buffering audio track 2 file C:\Temp\Sober\AUD\Clean and Sober (1988) AVO (А. Михалев) синхр.ac3.
Buffering audio track 3 file C:\Temp\Sober\AudioFile_80.ac3.
Maximum audio duration 446602 fields.
Multiplex delay set to 25257.
Positioned C:\Temp\Sober\VideoFile.m2v to 00:00:00:00
Starting scene Segment_1_scn1 at 00:00:00:00
Starting scene Segment_1_scn2 at 00:02:16:02
Starting scene Segment_1_scn3 at 00:05:48:28
Starting scene Segment_1_scn4 at 00:07:38:29
Starting scene Segment_1_scn5 at 00:09:59:09
Starting scene Segment_1_scn6 at 00:14:02:03
Starting scene Segment_1_scn7 at 00:18:05:29
Starting scene Segment_1_scn8 at 00:23:57:27
Starting scene Segment_1_scn9 at 00:28:43:29
Starting scene Segment_1_scn10 at 00:30:29:24
Starting scene Segment_1_scn11 at 00:32:55:16
Starting scene Segment_1_scn12 at 00:37:44:18
Starting scene Segment_1_scn13 at 00:43:11:28
Starting scene Segment_1_scn14 at 00:45:56:08
Starting scene Segment_1_scn15 at 00:48:03:04
Starting scene Segment_1_scn16 at 00:50:49:03
Starting scene Segment_1_scn17 at 00:52:52:29
Starting scene Segment_1_scn18 at 00:54:49:16
Starting scene Segment_1_scn19 at 00:58:22:06
Starting scene Segment_1_scn20 at 01:02:28:13
Starting scene Segment_1_scn21 at 01:08:15:15
Starting scene Segment_1_scn22 at 01:12:02:09
Starting scene Segment_1_scn23 at 01:17:41:05
Starting scene Segment_1_scn24 at 01:24:14:16
Starting scene Segment_1_scn25 at 01:27:49:21
Starting scene Segment_1_scn26 at 01:30:31:13
Starting scene Segment_1_scn27 at 01:36:32:10
Starting scene Segment_1_scn28 at 01:42:59:17
Starting scene Segment_1_scn29 at 01:45:49:16
Starting scene Segment_1_scn30 at 01:47:48:21
Starting scene Segment_1_scn31 at 01:51:57:15
Starting scene Segment_1_scn32 at 01:54:30:19
Starting scene Segment_1_scn33 at 01:56:21:17
Starting scene Segment_1_scn34 at 01:59:57:18
End of video file
Bytes remaining in buffer = 0.
Bitrate - avg: 4892922, min: 851116 (lba 2224907), max: 9853314 (lba 323713).
Shortest GOP has 2 fields, longest GOP has 30 fields.
Fields: 446602, VOBU: 14880, Sectors: 2225112.
18:34:59 Begin multiplex VMG.
18:34:59 End multiplex.
Summary of Virtual Memory Management
VM base 0f010000, reserved 58000000, commited 00010000, free 5d68, disposable 0.
handle 1, size a298 (41600 data), owner 80000001, time 0, locks 1 0 0, lcnt 1.
Locked by DBinit.
handle 0, size 5d68 (23888 data), owner 0, time 0, locks 0 0 0, lcnt 0.

Скриншоты меню



-
-
-

Коврик


_________________
Показать сообщения:    

Текущее время: Сегодня 09:02

Часовой пояс: GMT



Вы не можете начинать темы
Вы не можете отвечать на сообщения
Вы не можете редактировать свои сообщения
Вы не можете удалять свои сообщения
Вы не можете голосовать в опросах
Вы не можете прикреплять файлы к сообщениям
Вы не можете скачивать файлы