Важное объявление!
У Нас Все раздачи мультитрекерные, при нуле пиров в релизах, можете смело вставать на закачку!
 
Автор Сообщение

HUNTER

Стаж:
4 года 4 месяца
Сообщений:
56829

Репутация: 101

[+] [-]
Вне форума [Профиль] [ЛС]

В страхе / In Fear
Страна: Великобритания
Студия: Big Talk Productions
Жанр: ужасы, триллер, детектив
Год выпуска: 2013
Продолжительность: 01:25:05
Перевод: Одноголосый закадровый Xixidok
Cубтитры: английские
Оригинальная аудиодорожка: английский
Режиссер: Джереми Лавринг / Jeremy Lovering
В ролях: Йен де Кестекер, Элис Энглерт, Аллен Лич
Описание: Том и Люси недавно познакомились и решили поехать загород на музыкальный фестиваль. Но не найдя отель, в котором забронировали номер, они заблудились в чаще леса, батарейки в навигаторе и телефоне сели и вот уже поздней холодной ночью они поняли — из леса за ними кто-то наблюдает и хочет убить.
[img]https://rating.kinopoisk.ru/661688.gif[/img]
Сэмпл: http://sendfile.su/1267758
Тип релиза: BDRip 720p
Контейнер: MKV
Видео: 1280x546 (2.35:1), 23.976 fps, AVC, ~6600 Kbps, 0.394 bits/pixel
Аудио: Russian, 48.0 KHz, DTS, 6 ch, 1510 Kbps
Аудио 2: English, 48.0 KHz, DTS, 6 ch, 1510 Kbps
Формат субтитров: softsub (SRT)

MediaInfo

General
Unique ID : 210113377793463047158531159578516663179 (0x9E125D567BAE7C58B38C9FFAD2A02B8B)
Complete name : C:\Desktop\In.Fear.2013.720p.BDRip.mkv
Format : Matroska
Format version : Version 4 / Version 2
File size : 5.71 GiB
Duration : 1h 25mn
Overall bit rate : 9 616 Kbps
Encoded date : UTC 2016-09-22 07:16:04
Writing application : mkvmerge v7.0.0 ('Where We Going') 64bit built on Jun 9 2014 15:16:27
Writing library : libebml v1.3.0 + libmatroska v1.4.1
DURATION : 01:23:09.651000000
NUMBER_OF_FRAMES : 919
NUMBER_OF_BYTES : 26603
_STATISTICS_WRITING_APP : mkvmerge v7.0.0 ('Where We Going') 64bit built on Jun 9 2014 15:16:27
_STATISTICS_WRITING_DATE_UTC : 2016-09-22 07:16:04
_STATISTICS_TAGS : BPS DURATION NUMBER_OF_FRAMES NUMBER_OF_BYTES
Video
ID : 1
Format : AVC
Format/Info : Advanced Video Codec
Format profile : High@L4.1
Format settings, CABAC : Yes
Format settings, ReFrames : 11 frames
Codec ID : V_MPEG4/ISO/AVC
Duration : 1h 25mn
Bit rate : 6 600 Kbps
Width : 1 280 pixels
Height : 546 pixels
Display aspect ratio : 2.35:1
Frame rate mode : Constant
Frame rate : 23.976 fps
Color space : YUV
Chroma subsampling : 4:2:0
Bit depth : 8 bits
Scan type : Progressive
Bits/(Pixel*Frame) : 0.394
Stream size : 3.81 GiB (67%)
Title : In Fear 2013
Writing library : x264 core 133 r2334 a3ac64b
Encoding settings : cabac=1 / ref=11 / deblock=1:-3:-3 / analyse=0x3:0x113 / me=umh / subme=11 / psy=1 / psy_rd=1.05:0.00 / mixed_ref=1 / me_range=24 / chroma_me=1 / trellis=2 / 8x8dct=1 / cqm=0 / deadzone=21,11 / fast_pskip=0 / chroma_qp_offset=-2 / threads=3 / lookahead_threads=1 / sliced_threads=0 / nr=0 / decimate=0 / interlaced=0 / bluray_compat=0 / constrained_intra=0 / bframes=11 / b_pyramid=2 / b_adapt=2 / b_bias=0 / direct=3 / weightb=1 / open_gop=0 / weightp=2 / keyint=250 / keyint_min=23 / scenecut=40 / intra_refresh=0 / rc=2pass / mbtree=0 / bitrate=6600 / ratetol=1.0 / qcomp=0.60 / qpmin=0 / qpmax=69 / qpstep=4 / cplxblur=20.0 / qblur=0.5 / ip_ratio=1.40 / pb_ratio=1.30 / aq=1:0.60
Language : English
Default : Yes
Forced : No
DURATION : 01:25:05.100000000
NUMBER_OF_FRAMES : 122400
NUMBER_OF_BYTES : 4207250615
_STATISTICS_WRITING_APP : mkvmerge v7.0.0 ('Where We Going') 64bit built on Jun 9 2014 15:16:27
_STATISTICS_WRITING_DATE_UTC : 2016-09-22 07:16:04
_STATISTICS_TAGS : BPS DURATION NUMBER_OF_FRAMES NUMBER_OF_BYTES
Audio #1
ID : 2
Format : DTS
Format/Info : Digital Theater Systems
Mode : 16
Format settings, Endianness : Big
Codec ID : A_DTS
Duration : 1h 25mn
Bit rate mode : Constant
Bit rate : 1 510 Kbps
Channel(s) : 6 channels
Channel positions : Front: L C R, Side: L R, LFE
Sampling rate : 48.0 KHz
Bit depth : 16 bits
Compression mode : Lossy
Stream size : 919 MiB (16%)
Language : Russian
Default : Yes
Forced : No
Audio #2
ID : 3
Format : DTS
Format/Info : Digital Theater Systems
Mode : 16
Format settings, Endianness : Big
Codec ID : A_DTS
Duration : 1h 25mn
Bit rate mode : Constant
Bit rate : 1 510 Kbps
Channel(s) : 6 channels
Channel positions : Front: L C R, Side: L R, LFE
Sampling rate : 48.0 KHz
Bit depth : 16 bits
Compression mode : Lossy
Stream size : 919 MiB (16%)
Language : English
Default : No
Forced : No
Text #1
ID : 4
Format : UTF-8
Codec ID : S_TEXT/UTF8
Codec ID/Info : UTF-8 Plain Text
Language : English
Default : No
Forced : No
Text #2
ID : 5
Format : UTF-8
Codec ID : S_TEXT/UTF8
Codec ID/Info : UTF-8 Plain Text
Title : SDH
Language : English
Default : No
Forced : No
Menu
00:00:00.000 : en:00:00:00.000
00:10:02.477 : en:00:10:02.477
00:14:58.356 : en:00:14:58.356
00:22:19.296 : en:00:22:19.296
00:27:15.425 : en:00:27:15.425
00:34:42.706 : en:00:34:42.706
00:44:01.097 : en:00:44:01.097
00:50:28.400 : en:00:50:28.400
00:56:30.137 : en:00:56:30.137
01:04:23.735 : en:01:04:23.735
01:16:02.183 : en:01:16:02.183
01:20:38.625 : en:01:20:38.625

Скриншоты


_________________
Показать сообщения:    

Текущее время: Сегодня 16:46

Часовой пояс: GMT



Вы не можете начинать темы
Вы не можете отвечать на сообщения
Вы не можете редактировать свои сообщения
Вы не можете удалять свои сообщения
Вы не можете голосовать в опросах
Вы не можете прикреплять файлы к сообщениям
Вы не можете скачивать файлы