Важное объявление!
У Нас Все раздачи мультитрекерные, при нуле пиров в релизах, можете смело вставать на закачку!
 
Автор Сообщение

HUNTER

Стаж:
4 года 4 месяца
Сообщений:
56829

Репутация: 101

[+] [-]
Вне форума [Профиль] [ЛС]

В сердце моря в 3Д / In the Heart of the Sea 3D
Страна: США, Австралия, Испания, Великобритания, Канада
Жанр: боевик, триллер, драма, приключения, биография
Год выпуска: 2015
Продолжительность: 02:01:43
Перевод: Профессиональный (дублированный)
Cубтитры: Russian (Forced, iTunes), Russian (iTunes), Ukrainian (Forced, iTunes), English, English (SDH)
Оригинальная аудиодорожка: английский
Режиссер: Рон Ховард / Ron Howard-В ролях: Крис Хемсворт, Бенджамин Уокер, Киллиан Мёрфи, Брендан Глисон, Бен Уишоу, Мишель Фэйрли, Том Холланд, Пол Андерсон, Фрэнк Диллэйн, Джозеф Моул-Описание: В 1819 году американский корабль «Эссекс» с командой из двух десятков человек на борту отправился из порта в штате Массачусетс на китобойный промысел. Осенью 1820-го успешная на протяжении полутора лет охота была прервана атакой гигантского кашалота на судно, в результате чего морякам пришлось пересесть в шлюпки. В течение трех с лишним месяцев они боролись за выживание посреди океана...-Релиз:
-Формат 3D: Half SideBySide | Горизонтальная анаморфная стереопара
Качество видео: BDRip
Контейнер: MKV
Видео: 1920x1080 (AR: ~1.77) at 23.976 fps, x264, ~15770 kbps avg
Аудио: Russian: 48 kHz, AC3, 3/2 (L,C,R,l,r) + LFE ch, ~448.00 kbps avg |Дубляж, Blu-ray CEE|
Аудио: Ukrainian: 44 kHz, AAC, 2/0 (L,R) ch, ~160.00 kbps avg |Дубляж, iTunes Russia|
Аудио: English: 48 kHz, AC3-EX, 3/2 (L,C,R,l,r) + LFE ch, ~640.00 kbps avg-Цитата:
Цитата:

  • Сохранены оригинальные главы как на Blu-ray.
  • Исходный WEB-DL куплен в рамках сервиса "Копилка".

MediaInfo

Код:
Format                      : Matroska
Format version              : Version 2
File size                   : 14.4 GiB
Duration                    : 2h 1mn
Overall bit rate            : 17.0 Mbps
Movie name                  : In the Heart of the Sea [3D] (2015) - Release for HDCLUB
Encoded date                : UTC 2016-03-30 19:33:30
Writing application         : mkvmerge v3.4.0 ('Rapunzel') built on May 15 2010 09:38:20
Writing library             : libebml v0.8.0 + libmatroska v0.9.0
Video
ID                          : 1
Format                      : AVC
Format/Info                 : Advanced Video Codec
Format profile              : High@L4.1
Format settings, CABAC      : Yes
Format settings, ReFrames   : 4 frames
Codec ID                    : V_MPEG4/ISO/AVC
Duration                    : 2h 1mn
Width                       : 1 920 pixels
Height                      : 1 080 pixels
Display aspect ratio        : 16:9
Frame rate mode             : Constant
Frame rate                  : 23.976 (24000/1001) fps
Color space                 : YUV
Chroma subsampling          : 4:2:0
Bit depth                   : 8 bits
Scan type                   : Progressive
Title                       : In the Heart of the Sea [3D] (2015) - Release for HDCLUB
Writing library             : x264 core 148 r2665+53 6629127 t_mod_Custom [8-bit@all X86_64]
Encoding settings           : cabac=1 / ref=4 / deblock=1:-3:-3 / analyse=0x3:0x113 / me=umh / subme=10 / psy=1 / fade_compensate=0.00 / psy_rd=1.04:0.00 / mixed_ref=1 / me_range=32 / chroma_me=1 / trellis=2 / 8x8dct=1 / cqm=0 / deadzone=21,11 / fast_pskip=0 / chroma_qp_offset=-2 / threads=24 / lookahead_threads=4 / sliced_threads=0 / nr=0 / decimate=0 / interlaced=0 / bluray_compat=0 / constrained_intra=0 / fgo=0 / bframes=8 / b_pyramid=2 / b_adapt=2 / b_bias=0 / direct=3 / weightb=1 / open_gop=0 / weightp=2 / keyint=240 / keyint_min=23 / scenecut=40 / intra_refresh=0 / rc_lookahead=60 / rc=crf / mbtree=0 / crf=20.1000 / qcomp=0.75 / qpmin=0:0:0 / qpmax=69:69:69 / qpstep=4 / vbv_maxrate=62500 / vbv_bufsize=78125 / crf_max=0.0 / nal_hrd=none / filler=0 / ip_ratio=1.30 / pb_ratio=1.20 / aq=3:0.80 / aq-sensitivity=10.00 / aq-factor=1.00:1.00:1.00 / aq2=1:0.60 / aq2-sensitivity=15.00 / aq2-factor=1.00:1.00:1.00 / aq3=1:[0.60:0.60]:[0.60:0.60]:[0.60:0.60]:[0.60:0.60] / aq3-sensitivity=10.00 / aq3-factor=[1.00:1.00]:[1.00:1.00]:[1.00:1.00] / aq3-boundary=192:64:24
Language                    : English
Default                     : Yes
Forced                      : No
Color range                 : Limited
Color primaries             : BT.709
Transfer characteristics    : BT.709
Matrix coefficients         : BT.709
Audio #1
ID                          : 2
Format                      : AC-3
Format/Info                 : Audio Coding 3
Mode extension              : CM (complete main)
Format settings, Endianness : Big
Codec ID                    : A_AC3
Duration                    : 2h 1mn
Bit rate mode               : Constant
Bit rate                    : 448 Kbps
Channel(s)                  : 6 channels
Channel positions           : Front: L C R, Side: L R, LFE
Sampling rate               : 48.0 KHz
Frame rate                  : 31.250 fps (1536 spf)
Compression mode            : Lossy
Stream size                 : 390 MiB (3%)
Title                       : AC3 5.1 @ 448 kbps - DUB, Blu-ray CEE
Language                    : Russian
Default                     : Yes
Forced                      : No
Audio #2
ID                          : 3
Format                      : AAC
Format/Info                 : Advanced Audio Codec
Format profile              : HE-AAC / LC
Codec ID                    : A_AAC
Duration                    : 2h 1mn
Channel(s)                  : 2 channels
Channel positions           : Front: L R
Sampling rate               : 88.2 KHz / 44.1 KHz
Frame rate                  : 43.066 fps (1024 spf)
Compression mode            : Lossy
Delay relative to video     : 938ms
Title                       : AAC 2.0 @ 160 kbps - DUB, iTunes
Language                    : Ukrainian
Default                     : No
Forced                      : No
Audio #3
ID                          : 4
Format                      : AC-3
Format/Info                 : Audio Coding 3
Mode extension              : CM (complete main)
Format settings, Endianness : Big
Codec ID                    : A_AC3
Duration                    : 2h 1mn
Bit rate mode               : Constant
Bit rate                    : 640 Kbps
Channel(s)                  : 6 channels
Channel positions           : Front: L C R, Side: L R, LFE
Sampling rate               : 48.0 KHz
Frame rate                  : 31.250 fps (1536 spf)
Compression mode            : Lossy
Stream size                 : 557 MiB (4%)
Title                       : AC3 5.1-EX @ 640 kbps
Language                    : English
Default                     : No
Forced                      : No
Text #1
ID                          : 5
Format                      : UTF-8
Codec ID                    : S_TEXT/UTF8
Codec ID/Info               : UTF-8 Plain Text
Title                       : Forced, iTunes
Language                    : Russian
Default                     : Yes
Forced                      : No
Text #2
ID                          : 6
Format                      : UTF-8
Codec ID                    : S_TEXT/UTF8
Codec ID/Info               : UTF-8 Plain Text
Title                       : iTunes
Language                    : Russian
Default                     : No
Forced                      : No
Text #3
ID                          : 7
Format                      : UTF-8
Codec ID                    : S_TEXT/UTF8
Codec ID/Info               : UTF-8 Plain Text
Title                       : Forced, iTunes
Language                    : Ukrainian
Default                     : No
Forced                      : No
Text #4
ID                          : 8
Format                      : UTF-8
Codec ID                    : S_TEXT/UTF8
Codec ID/Info               : UTF-8 Plain Text
Language                    : English
Default                     : No
Forced                      : No
Text #5
ID                          : 9
Format                      : UTF-8
Codec ID                    : S_TEXT/UTF8
Codec ID/Info               : UTF-8 Plain Text
Title                       : SDH
Language                    : English
Default                     : No
Forced                      : No
Menu
00:00:00.000                : en:1 - 0:00:00
00:12:07.518                : en:2 - 0:12:08
00:21:19.736                : en:3 - 0:21:20
00:33:31.968                : en:4 - 0:33:32
00:42:37.012                : en:5 - 0:42:37
00:51:32.714                : en:6 - 0:51:33
01:06:45.835                : en:7 - 1:06:46
01:13:14.014                : en:8 - 1:13:14
01:23:23.289                : en:9 - 1:23:23
01:33:47.872                : en:10 - 1:33:48
01:43:22.029                : en:11 - 1:43:22
01:53:00.774                : en:12 - 1:53:01
02:01:42.920                : en:13 - 2:01:43

Скриншоты


_________________
Показать сообщения:    

Текущее время: Сегодня 17:00

Часовой пояс: GMT



Вы не можете начинать темы
Вы не можете отвечать на сообщения
Вы не можете редактировать свои сообщения
Вы не можете удалять свои сообщения
Вы не можете голосовать в опросах
Вы не можете прикреплять файлы к сообщениям
Вы не можете скачивать файлы