Важное объявление!
У Нас Все раздачи мультитрекерные, при нуле пиров в релизах, можете смело вставать на закачку!
 
Автор Сообщение

HUNTER

Стаж:
4 года 4 месяца
Сообщений:
56719

Репутация: 101

[+] [-]
Вне форума [Профиль] [ЛС]

В поисках поклёвки. Джиг. ("Серебряный ручей"). 2012-
Страна: Россия
Год выпуска: 2012
Жанр: Рыбалка
Продолжительность: 00:26:33+00:13:00
Язык: Русский
Перевод: Не требуется
Субтитры: Отсутствуют-Режиссер / Телекомпания: Sib-TV-Описание: Пригородный карьер. Казалось бы, всю рыбу давно выловили...-Качество: IPTVRip
Формат: AVI
Видео кодек: XviD
Аудио кодек: MP3
Видео: 720 x 408 (1.765) at 25.000 fps: MPEG-4 Visual at 1994 Кбит/сек (для всех)
Аудио: 2 канала, 44,1 КГц: MPEG Audio at 128 Кбит/сек (для всех)-За видео спасибо ingvar xl

MediaInfo

General
Complete name : C:\!VиDе0з@пи(и\»«(((°» РыБ@LI{@\New\В поисках поклёвки Джиг (Серебряный ручей). [2012, Рыбалка, IPTVRip, RUS] (Видео)\Jig_01.avi
Format : AVI
Format/Info : Audio Video Interleave
File size : 405 MiB
Duration : 26mn 33s
Overall bit rate : 2 132 Kbps
Writing library : VirtualDub build 32842/release
Video
ID : 0
Format : MPEG-4 Visual
Format profile : Advanced Simple@L5
Format settings, BVOP : 2
Format settings, QPel : No
Format settings, GMC : No warppoints
Format settings, Matrix : Default (H.263)
Muxing mode : Packed bitstream
Codec ID : XVID
Codec ID/Hint : XviD
Duration : 26mn 33s
Bit rate : 1 994 Kbps
Width : 720 pixels
Height : 408 pixels
Display aspect ratio : 16:9
Frame rate : 25.000 fps
Color space : YUV
Chroma subsampling : 4:2:0
Bit depth : 8 bits
Scan type : Progressive
Compression mode : Lossy
Bits/(Pixel*Frame) : 0.272
Stream size : 379 MiB (94%)
Writing library : XviD 65
Audio
ID : 1
Format : MPEG Audio
Format version : Version 1
Format profile : Layer 3
Mode : Joint stereo
Mode extension : MS Stereo
Codec ID : 55
Codec ID/Hint : MP3
Duration : 26mn 33s
Bit rate mode : Constant
Bit rate : 128 Kbps
Channel(s) : 2 channels
Sampling rate : 44.1 KHz
Compression mode : Lossy
Stream size : 24.3 MiB (6%)
Alignment : Split accross interleaves
Interleave, duration : 40 ms (1.00 video frame)
Interleave, preload duration : 501 ms
General
Complete name : C:\!VиDе0з@пи(и\»«(((°» РыБ@LI{@\New\В поисках поклёвки Джиг (Серебряный ручей). [2012, Рыбалка, IPTVRip, RUS] (Видео)\Jig_02.avi
Format : AVI
Format/Info : Audio Video Interleave
File size : 198 MiB
Duration : 13mn 0s
Overall bit rate : 2 124 Kbps
Writing library : VirtualDub build 32842/release
Video
ID : 0
Format : MPEG-4 Visual
Format profile : Advanced Simple@L5
Format settings, BVOP : 2
Format settings, QPel : No
Format settings, GMC : No warppoints
Format settings, Matrix : Default (H.263)
Muxing mode : Packed bitstream
Codec ID : XVID
Codec ID/Hint : XviD
Duration : 13mn 0s
Bit rate : 1 986 Kbps
Width : 720 pixels
Height : 408 pixels
Display aspect ratio : 16:9
Frame rate : 25.000 fps
Color space : YUV
Chroma subsampling : 4:2:0
Bit depth : 8 bits
Scan type : Progressive
Compression mode : Lossy
Bits/(Pixel*Frame) : 0.270
Stream size : 185 MiB (94%)
Writing library : XviD 65
Audio
ID : 1
Format : MPEG Audio
Format version : Version 1
Format profile : Layer 3
Mode : Joint stereo
Mode extension : MS Stereo
Codec ID : 55
Codec ID/Hint : MP3
Duration : 13mn 0s
Bit rate mode : Constant
Bit rate : 128 Kbps
Channel(s) : 2 channels
Sampling rate : 44.1 KHz
Compression mode : Lossy
Stream size : 11.9 MiB (6%)
Alignment : Split accross interleaves
Interleave, duration : 40 ms (1.00 video frame)
Interleave, preload duration : 501 ms

Скриншоты

Jig_01
Jig_02

_________________
Показать сообщения:    

Текущее время: Сегодня 23:05

Часовой пояс: GMT



Вы не можете начинать темы
Вы не можете отвечать на сообщения
Вы не можете редактировать свои сообщения
Вы не можете удалять свои сообщения
Вы не можете голосовать в опросах
Вы не можете прикреплять файлы к сообщениям
Вы не можете скачивать файлы