Важное объявление!
У Нас Все раздачи мультитрекерные, при нуле пиров в релизах, можете смело вставать на закачку!
 
Автор Сообщение

HUNTER

Стаж:
4 года 4 месяца
Сообщений:
56765

Репутация: 101

[+] [-]
Вне форума [Профиль] [ЛС]


-

  • Год производства: 2003

  • Страна: Австралия, США

  • Жанр: Мультфильм, комедия, приключения, семейный

  • Продолжительность: 01:40:53

  • Перевод#1: Профессиональный (дублированный) BD CEE

  • Перевод#2: Авторский (одноголосый закадровый) Юрий Живов

  • Перевод#3: Авторский (одноголосый закадровый) Андрей Гаврилов

  • Перевод#4: Профессиональный (двухголосый закадровый) С.Р.И.

  • Перевод#5: Профессиональный (двухголосый закадровый)

  • Перевод#6: Авторский (одноголосый закадровый) Антон Карповский

  • Перевод#7: Авторский (одноголосый закадровый) Евгений Гранкин

  • Субтитры: Присутствуют-
  • Режиссер: Эндрю Стэнтон / Andrew Stanton, Ли Анкрич / Lee Unkrich-
  • Описание: Среди прекрасных тропических морских стихий, в районе Большого барьерного рифа в уединении живет рыба-клоун по имени Марлин. Он растит своего единственного сыночка Немо. Океан и существующие в нем опасности очень страшат Марлина, и он как может ограждает сына от них, но молодой Немо, страдающий излишним любопытством, очень хочет разузнать побольше о таинственном рифе, рядом с которым они живут.
    Когда Немо по иронии судьбы оказывается вдалеке от дома, да и еще сталкивается с угрозой стать обедом рыбы-танка, Марлин отправляется на поиски сына. Но Марлин, конечно же, понимает, что героический спасатель из него не получится и просит о помощи в поисках, Дори, королевскую синюю рыбу, которая хоть и страдает от того, что почти ничего не помнит, но добрее ее не отыскать во всем безбрежном океане!
    Итак, наши герои отправляются в путешествие, в котором их подкарауливают многочисленные трудности и опасности…
    -
  • Качество видео: BDRip 1080p /Исходник: BD CEE/

  • Формат видео: mkv

  • Видео кодек: AVC

  • Аудио кодек: AC3|DTS

  • Видео: 1920x1080 (1.778:1), 23.976 fps, ~12153 kbps avg, 0.244 bits/pixel

  • Аудио #1: Русский, 48.0 KHz, AC3 EX, 6 ch, 640 kbps /Дубляж/

  • Аудио #2: Українська, 48.0 KHz, AC3 EX, 6 ch, 640 kbps /Дубляж/

  • Аудио #3: Русский, 48.0 KHz, DTS, 6 ch, 1509 kbps, 24-bit /Одноголосый закадровый | Юрий Живов/

  • Аудио #4: Русский, 48.0 KHz, DTS, 6 ch, 1509 kbps, 24-bit /Одноголосый закадровый | Андрей Гаврилов/

  • Аудио #5: Русский, 48.0 KHz, DTS, 6 ch, 768 kbps /Двухголосый закадровый | С.Р.И./

  • Аудио #6: Русский, 48.0 KHz, AC3, 6 ch, 448 kbps /Двухголосый закадровый/

  • Аудио #7: Русский, 48.0 KHz, AC3, 6 ch, 448 kbps /Одноголосый закадровый | Антон Карповский/

  • Аудио #8: Русский, 48.0 KHz, AC3, 1 ch, 128 kbps /Одноголосый закадровый | Евгений Гранкин/

  • Аудио #9: English, 48.0 KHz, DTS, 6 ch, 1509 kbps, 24-bit /Original/

  • Аудио #10: English, 48.0 KHz, AC3, 2 ch, 320 kbps Audio /Descriptive/

  • Аудио #11: English, 48.0 KHz, AC3, 2 ch, 192 kbps /Commentary by director Andrew Stanton, co-director Lee Unkrich and co-writer Bob Peterson/

  • Субтитры: Русские, Українські, English, English [SDH], Русские (комментарии)

  • Навигация по главам: есть (32 именованных главы)
-

Скриншоты

MediaInfo

Код: copyText_writeLink('this.parentNode.parentNode.nextSibling.nextSibling');
General
Unique ID : 251177671467877480132792510774990115818 (0xBCF70F54913A09368F2210C1188493EA)
Complete name : D:\Торенты\Finding.Nemo.2003.Orig.Video.BDRip.1080p.mkv
Format : Matroska
Format version : Version 2
File size : 14.3 GiB
Duration : 1h 40mn
Overall bit rate : 20.3 Mbps
Encoded date : UTC 2013-01-21 12:34:19
Writing application : mkvmerge v4.0.0 ('The Stars were mine') built on Jun 6 2010 16:18:42
Writing library : libebml v1.0.0 + libmatroska v1.0.0
Video
ID : 1
Format : AVC
Format/Info : Advanced Video Codec
Format profile : [url=mailto:High@L4.1]High@L4.1[/url]
Format settings, CABAC : Yes
Format settings, ReFrames : 4 frames
Codec ID : V_MPEG4/ISO/AVC
Duration : 1h 40mn
Bit rate : 11.8 Mbps
Width : 1 920 pixels
Height : 1 080 pixels
Display aspect ratio : 16:9
Frame rate mode : Constant
Frame rate : 23.976 fps
Color space : YUV
Chroma subsampling : 4:2:0
Bit depth : 8 bits
Scan type : Progressive
Bits/(Pixel*Frame) : 0.237
Stream size : 8.29 GiB (58%)
Title : NTSC, 1920x1080 (1.778:1), BDRip 1080p - tRuAVC & Multfilmy [DFCbit]
Writing library : x264 core 129 r2245kMod bc13772
Encoding settings : cabac=1 / ref=4 / deblock=1:-2:-1 / analyse=0x3:0x133 / me=umh / subme=11 / psy=1 / fade_compensate=0.00 / psy_rd=0.60:0.00 / mixed_ref=1 / me_range=32 / chroma_me=1 / trellis=2 / 8x8dct=1 / cqm=0 / deadzone=21,11 / fast_pskip=0 / chroma_qp_offset=-2 / threads=6 / lookahead_threads=1 / sliced_threads=0 / nr=0 / decimate=1 / interlaced=0 / bluray_compat=0 / constrained_intra=0 / bframes=9 / b_pyramid=2 / b_adapt=2 / b_bias=0 / direct=1 / weightb=1 / open_gop=0 / weightp=2 / keyint=250 / keyint_min=23 / scenecut=40 / intra_refresh=0 / rc_lookahead=70 / rc=crf / mbtree=0 / crf=18.9000 / qcomp=0.80 / qpmin=0 / qpmax=69 / qpstep=4 / vbv_maxrate=50000 / vbv_bufsize=62500 / crf_max=0.0 / nal_hrd=none / ip_ratio=1.40 / pb_ratio=1.30 / aq=3:0.90
Language : English
Default : Yes
Forced : No
Color primaries : BT.709
Transfer characteristics : BT.709
Matrix coefficients : BT.709
Audio #1
ID : 2
Format : AC-3
Format/Info : Audio Coding 3
Mode extension : CM (complete main)
Format settings, Endianness : Big
Codec ID : A_AC3
Duration : 1h 40mn
Bit rate mode : Constant
Bit rate : 640 Kbps
Channel(s) : 6 channels
Channel positions : Front: L C R, Side: L R, LFE
Sampling rate : 48.0 KHz
Bit depth : 16 bits
Compression mode : Lossy
Stream size : 462 MiB (3%)
Title : AC3 EX, 6 ch, 48 kHz, 640 kbps, Dubbing
Language : Russian
Default : Yes
Forced : No
Audio #2
ID : 3
Format : AC-3
Format/Info : Audio Coding 3
Mode extension : CM (complete main)
Format settings, Endianness : Big
Codec ID : A_AC3
Duration : 1h 40mn
Bit rate mode : Constant
Bit rate : 640 Kbps
Channel(s) : 6 channels
Channel positions : Front: L C R, Side: L R, LFE
Sampling rate : 48.0 KHz
Bit depth : 16 bits
Compression mode : Lossy
Stream size : 462 MiB (3%)
Title : AC3 EX, 6 ch, 48 kHz, 640 kbps, Dubbing
Language : Ukrainian
Default : No
Forced : No
Audio #3
ID : 4
Format : DTS
Format/Info : Digital Theater Systems
Codec ID : A_DTS
Duration : 1h 40mn
Bit rate mode : Constant
Bit rate : 1 510 Kbps
Channel(s) : 6 channels
Channel positions : Front: L C R, Side: L R, LFE
Sampling rate : 48.0 KHz
Bit depth : 24 bits
Compression mode : Lossy
Stream size : 1.06 GiB (7%)
Title : DTS, 6 ch, 48 kHz, 1509 kbps, 24-bit, AVO [Ю. Живов]
Language : Russian
Default : No
Forced : No
Audio #4
ID : 5
Format : DTS
Format/Info : Digital Theater Systems
Codec ID : A_DTS
Duration : 1h 40mn
Bit rate mode : Constant
Bit rate : 1 510 Kbps
Channel(s) : 6 channels
Channel positions : Front: L C R, Side: L R, LFE
Sampling rate : 48.0 KHz
Bit depth : 24 bits
Compression mode : Lossy
Stream size : 1.06 GiB (7%)
Title : DTS, 6 ch, 48 kHz, 1509 kbps, 24-bit, AVO [А. Гаврилов]
Language : Russian
Default : No
Forced : No
Audio #5
ID : 6
Format : DTS
Format/Info : Digital Theater Systems
Codec ID : A_DTS
Duration : 1h 40mn
Bit rate mode : Constant
Bit rate : 755 Kbps
Channel(s) : 6 channels
Channel positions : Front: L C R, Side: L R, LFE
Sampling rate : 48.0 KHz
Bit depth : 24 bits
Compression mode : Lossy
Stream size : 545 MiB (4%)
Title : DTS, 6 ch, 48 kHz, 768 kbps, DVO [С.Р.И.]
Language : Russian
Default : No
Forced : No
Audio #6
ID : 7
Format : AC-3
Format/Info : Audio Coding 3
Mode extension : CM (complete main)
Format settings, Endianness : Big
Codec ID : A_AC3
Duration : 1h 40mn
Bit rate mode : Constant
Bit rate : 448 Kbps
Channel(s) : 6 channels
Channel positions : Front: L C R, Side: L R, LFE
Sampling rate : 48.0 KHz
Bit depth : 16 bits
Compression mode : Lossy
Stream size : 323 MiB (2%)
Title : AC3, 6 ch, 48 kHz, 448 kbps, DVO
Language : Russian
Default : No
Forced : No
Audio #7
ID : 8
Format : AC-3
Format/Info : Audio Coding 3
Mode extension : CM (complete main)
Format settings, Endianness : Big
Codec ID : A_AC3
Duration : 1h 40mn
Bit rate mode : Constant
Bit rate : 448 Kbps
Channel(s) : 6 channels
Channel positions : Front: L C R, Side: L R, LFE
Sampling rate : 48.0 KHz
Bit depth : 16 bits
Compression mode : Lossy
Stream size : 323 MiB (2%)
Title : AC3, 6 ch, 48 kHz, 448 kbps, AVO [А. Карповский]
Language : Russian
Default : No
Forced : No
Audio #8
ID : 9
Format : AC-3
Format/Info : Audio Coding 3
Mode extension : CM (complete main)
Format settings, Endianness : Big
Codec ID : A_AC3
Duration : 1h 40mn
Bit rate mode : Constant
Bit rate : 128 Kbps
Channel(s) : 1 channel
Channel positions : Front: C
Sampling rate : 48.0 KHz
Bit depth : 16 bits
Compression mode : Lossy
Stream size : 92.4 MiB (1%)
Title : AC3, 1 ch, 48 kHz, 128 kbps, AVO [Е. Гранкин]
Language : Russian
Default : No
Forced : No
Audio #9
ID : 10
Format : DTS
Format/Info : Digital Theater Systems
Codec ID : A_DTS
Duration : 1h 40mn
Bit rate mode : Constant
Bit rate : 1 510 Kbps
Channel(s) : 6 channels
Channel positions : Front: L C R, Side: L R, LFE
Sampling rate : 48.0 KHz
Bit depth : 24 bits
Compression mode : Lossy
Stream size : 1.06 GiB (7%)
Title : DTS, 6 ch, 48 kHz, 1509 kbps, 24-bit, Original
Language : English
Default : No
Forced : No
Audio #10
ID : 11
Format : AC-3
Format/Info : Audio Coding 3
Format profile : Dolby Digital
Mode extension : CM (complete main)
Format settings, Endianness : Big
Codec ID : A_AC3
Duration : 1h 40mn
Bit rate mode : Constant
Bit rate : 320 Kbps
Channel(s) : 2 channels
Channel positions : Front: L R
Sampling rate : 48.0 KHz
Bit depth : 16 bits
Compression mode : Lossy
Stream size : 231 MiB (2%)
Title : AC3, 2 ch, 48 kHz, 320kbps, Audio Descriptive
Language : English
Default : No
Forced : No
Audio #11
ID : 12
Format : AC-3
Format/Info : Audio Coding 3
Mode extension : CM (complete main)
Format settings, Endianness : Big
Codec ID : A_AC3
Duration : 1h 40mn
Bit rate mode : Constant
Bit rate : 192 Kbps
Channel(s) : 2 channels
Channel positions : Front: L R
Sampling rate : 48.0 KHz
Bit depth : 16 bits
Compression mode : Lossy
Stream size : 139 MiB (1%)
Title : AC3, 2 ch, 48 kHz, 192 kbps, Commentary by director Andrew Stanton, co-director Lee Unkrich and co-writer Bob Peterson
Language : English
Default : No
Forced : No
Text #1
ID : 13
Format : UTF-8
Codec ID : S_TEXT/UTF8
Codec ID/Info : UTF-8 Plain Text
Title : SRT, Full
Language : Russian
Default : No
Forced : No
Text #2
ID : 14
Format : UTF-8
Codec ID : S_TEXT/UTF8
Codec ID/Info : UTF-8 Plain Text
Title : SRT, Full
Language : Ukrainian
Default : No
Forced : No
Text #3
ID : 15
Format : UTF-8
Codec ID : S_TEXT/UTF8
Codec ID/Info : UTF-8 Plain Text
Title : SRT, Full
Language : English
Default : No
Forced : No
Text #4
ID : 16
Format : UTF-8
Codec ID : S_TEXT/UTF8
Codec ID/Info : UTF-8 Plain Text
Title : SRT, (SDH)
Language : English
Default : No
Forced : No
Text #5
ID : 17
Format : UTF-8
Codec ID : S_TEXT/UTF8
Codec ID/Info : UTF-8 Plain Text
Title : SRT, Комментарии
Language : Russian
Default : No
Forced : No
Menu
00:00:00.000 : :01. New Parents
00:04:18.717 : :02. Main Titles
00:05:35.669 : :03. First Day of School
00:11:17.802 : :04. Field Trip
00:12:16.277 : :05. The Drop Off
00:14:08.848 : :06. Nemo Lost
00:16:29.280 : :07. Meeting Dory
00:18:50.338 : :08. Sharks
00:25:31.989 : :09. The Tank Gang
00:30:54.227 : :10. The Abyss
00:33:01.646 : :11. Anglerfish
00:36:11.836 : :12. Nemo's Initiation
00:40:19.167 : :13. Fish Impressions
00:44:58.279 : :14. Jellyfish
00:48:12.389 : :15. The Filter
00:51:28.419 : :16. Sea Turtles
00:56:07.030 : :17. News Travels
01:00:55.902 : :18. Off Ramp
01:05:20.667 : :19. Dory Speaks Whale
01:07:02.101 : :20. Algae
01:08:30.148 : :21. Inside the Whale
01:13:19.437 : :22. Sydney Harbour
01:14:15.201 : :23. The Aquascum
01:16:00.097 : :24. Pelicans
01:18:41.300 : :25. Darla!
01:21:57.621 : :26. Goodbye Dory
01:24:29.481 : :27. Nemo and Dory
01:26:54.334 : :28. Fishing Net
01:29:26.611 : :29. Reunion
01:30:51.363 : :30. Back on the Reef
01:32:42.974 : :31. Tank Escape
01:33:24.265 : :32. End Credits

_________________
Показать сообщения:    

Текущее время: Сегодня 21:42

Часовой пояс: GMT



Вы не можете начинать темы
Вы не можете отвечать на сообщения
Вы не можете редактировать свои сообщения
Вы не можете удалять свои сообщения
Вы не можете голосовать в опросах
Вы не можете прикреплять файлы к сообщениям
Вы не можете скачивать файлы