Важное объявление!
У Нас Все раздачи мультитрекерные, при нуле пиров в релизах, можете смело вставать на закачку!
 
Автор Сообщение

HUNTER

Стаж:
4 года 4 месяца
Сообщений:
56722

Репутация: 101

[+] [-]
Вне форума [Профиль] [ЛС]

В поисках Немо / Finding Nemo
«From the Creators of Monsters, Inc»
-
Страна: США
Жанр: мультфильм, комедия, приключения, семейный
Продолжительность: 01:40:53
Год выпуска: 2003
Перевод: Профессиональный (дублированный)
Русские субтитры: есть
Оригинальная звуковая дорожка [English]-Режиссёр: Эндрю Стэнтон / Andrew Stanton, Ли Анкрич / Lee Unkrich
Сценарий: Эндрю Стэнтон / Эндрю Стэнтон, Боб Питерсон / Bob Peterson
Продюсер: Грэхэм Уолтерс / Graham Walters, Джон Лассетер / John Lasseter
Оператор: Шэрон Кэлахан / Sharon Calahan, Джереми Ласки / Jeremy Lasky
Композитор: Томас Ньюман / Thomas Newman-Роли озвучивали:
Альберт Брукс (Marlin, озвучка), Эллен ДеДженерес (Dory, озвучка), Александр Гулд (Nemo, озвучка), Уиллем Дефо (Gill, озвучка), Эллисон Дженни (Peach, озвучка), Джо Рэнфт (Jacques, озвучка), Джеффри Раш (Nigel, озвучка), Элизабет Перкинс (Coral, озвучка), Эрик Бана (Anchor, озвучка), Эндрю Стэнтон (Crush, озвучка).-Бюджет: $94 000 000
Маркетинг: $40 000 000
Сборы в США: $380 843 261
Сборы в России: $6 430 000
Сборы в мире: $921 743 261-Мировая премьера: 30 мая 2003
Премьера (РФ): 25 декабря 2003, «Каскад»
Ре-релиз (РФ): 13 сентября 2012, «WDSSPR»
Релиз на DVD: 3 декабря 2009, «Уолт Дисней Компани СНГ»
Релиз на Blu-ray: 27 ноября 2012, «Уолт Дисней Компани СНГ»
-Описание:
Среди прекрасных тропических морских стихий, в районе Большого барьерного рифа в уединении живет рыба-клоун по имени Марлин. Он растит своего единственного сыночка Немо.
Океан и существующие в нем опасности очень страшат Марлина, и он как может ограждает сына от них, но молодой Немо, страдающий излишним любопытством, очень хочет разузнать побольше о таинственном рифе, рядом с которым они живут.
Когда Немо по иронии судьбы оказывается вдалеке от дома, да и еще сталкивается с угрозой стать обедом рыбы-танка, Марлин отправляется на поиски сына.
Но Марлин, конечно же, понимает, что героический спасатель из него не получится и просит о помощи в поисках, Дори, королевскую синюю рыбу, которая хоть и страдает от того, что почти ничего не помнит, но добрее ее не отыскать во всем безбрежном океане!
Итак, наши герои отправляются в путешествие, в котором их подкарауливают многочисленные трудности и опасности…-Рейтинг
kinopoisk.ru: 7.941 (86 441)
imdb.com: 8.20 (513 060)
MPAA: G - Нет возрастных ограничений-Качество: BD-Rip | thx: xfiles
Формат: AVI ///СОВМЕСТИМО С БЫТОВЫМИ ПЛЕЕРАМИ///→ //SAMPLE//
Видео: 704x400 (1.76:1), 23.976 fps, XviD build 65 ~2185 kbps avg, 0.33 bit/pixel
Аудио#1: 48.0 kHz, AC3 Dolby Digital, 3/2 (L,C,R,l,r) + LFE ch, ~448 kbps | DUB
Аудио#2: 48.0 kHz, AC3 Dolby Digital, 3/2 (L,C,R,l,r) + LFE ch, ~448 kbps | ENG
Субтитры: RUS, RUS { Comments } | ENG, ENG { SDH } | *srt
Размер: 2236.09 Mb (1/2 DVD-R)
-

Подробные технические данные

ОбщееПолное имя : D:\Фильмы\Finding.Nemo.2003.BDRip.XviD.2,18Gb.AC3..aviФормат : AVIФормат/Информация : Audio Video InterleaveПрофиль формата : OpenDMLРазмер файла : 2,18 ГбайтПродолжительность : 1 ч. 40 м.Общий поток : 3098 Кбит/секПрограмма кодирования : VirtualDubMod 1.5.10.3 | www.virtualdub-fr.org || (build 2550/release)Библиотека кодирования : VirtualDubMod build 2550/release
ВидеоИдентификатор : 0Формат : MPEG-4 VisualПрофиль формата : Advanced Simple@L5Параметр BVOP формата : 1Параметр QPel формата : НетПараметр GMC формата : Без точки переходаПараметр матрицы формата : ВыборочнаяИдентификатор кодека : XVIDИдентификатор кодека/Подсказка : XviDПродолжительность : 1 ч. 40 м.Битрейт : 2185 Кбит/секШирина : 704 пикселяВысота : 400 пикселейСоотношение сторон : 1.76:1Частота кадров : 23,976 кадра/секЦветовое пространство : YUVСубдискретизация насыщенности : 4:2:0Битовая глубина : 8 битТип развёртки : ПрогрессивнаяМетод сжатия : С потерямиБит/(Пиксели*Кадры) : 0.324Размер потока : 1,54 Гбайт (71%)Библиотека кодирования : XviD 65
Аудио #1Идентификатор : 1Формат : AC-3Формат/Информация : Audio Coding 3Расширение режима : CM (complete main)Параметр Endianness формата : BigИдентификатор кодека : 2000Продолжительность : 1 ч. 40 м.Вид битрейта : ПостоянныйБитрейт : 448 Кбит/секКаналы : 6 каналовРасположение каналов : Front: L C R, Side: L R, LFEЧастота : 48,0 КГцБитовая глубина : 16 битМетод сжатия : С потерямиРазмер потока : 323 Мбайт (14%)Выравнивание : Разделение по промежуткамПродолжительность промежутка : 42 мс. (1,00 видеокадр)Время предзагрузки промежутка : 500 мс.
Аудио #2Идентификатор : 2Формат : AC-3Формат/Информация : Audio Coding 3Расширение режима : CM (complete main)Параметр Endianness формата : BigИдентификатор кодека : 2000Продолжительность : 1 ч. 40 м.Вид битрейта : ПостоянныйБитрейт : 448 Кбит/секКаналы : 6 каналовРасположение каналов : Front: L C R, Side: L R, LFEЧастота : 48,0 КГцБитовая глубина : 16 битМетод сжатия : С потерямиРазмер потока : 323 Мбайт (14%)Выравнивание : Разделение по промежуткамПродолжительность промежутка : 42 мс. (1,00 видеокадр)Время предзагрузки промежутка : 500 мс.

Скриншоты


_________________
Показать сообщения:    

Текущее время: Сегодня 08:11

Часовой пояс: GMT



Вы не можете начинать темы
Вы не можете отвечать на сообщения
Вы не можете редактировать свои сообщения
Вы не можете удалять свои сообщения
Вы не можете голосовать в опросах
Вы не можете прикреплять файлы к сообщениям
Вы не можете скачивать файлы