Важное объявление!
У Нас Все раздачи мультитрекерные, при нуле пиров в релизах, можете смело вставать на закачку!
 
Автор Сообщение

HUNTER

Стаж:
4 года 4 месяца
Сообщений:
56749

Репутация: 101

[+] [-]
Вне форума [Профиль] [ЛС]

-В погоне за счастьем / The Pursuit of Happyness-
Страна: США
Жанр: драма, биография
Год выпуска: 2006
Продолжительность: 01:57:27
Перевод : Профессиональный (полное дублирование) CEE; профессиональный (многоголосый, закадровый)
Cубтитры: Russian, English, English (Commentary)
Оригинальная аудиодорожка: английская-Режиссер: Габриэле Муччино / Gabriele Muccino
В ролях: Уилл Смит, Джейден Смит, Тэнди Ньютон, Брайан Хау, Джеймс Карен, Дэн Кастелланета, Курт Фуллер, Такайо Фишер, Кевин Уэст, Джордж Чунг
Описание: Крис Гарднер – отец-одиночка. Воспитывая пятилетнего сына, Крис изо всех сил старается сделать так, чтобы ребенок рос счастливым. Работая продавцом, он не может оплатить квартиру, и их выселяют.
Оказавшись на улице, но не желая сдаваться, отец устраивается стажером в брокерскую компанию, рассчитывая получить должность специалиста. Только на протяжении стажировки он не будет получать никаких денег, а стажировка длится 6 месяцев...-[img]https://rating.kinopoisk.ru/104938.gif[/img]-Сэмпл 1
Сэмпл 2
Сэмпл 3
Тип релиза: BDRip 720p
Контейнер: MKV
Видео: 1280x534 (2.40:1); 8013 kbps; 0.489 bpp; 23.976 fps
Аудио 1: Russian: AC3; 48 kHz; 640 kbps; 6 ch - DUB
Аудио 2: Russian: AC3; 48 kHz; 448 kbps; 6 ch - MVO
Аудио 3: Ukrainian: AC3; 48 kHz; 448 kbps; 6 ch
Аудио 4: English: DTS; 48 kHz; 1509 kbps; 6 ch
Аудио 5: English: AC3; 48 kHz; 192 kbps; 2 ch - Commentary
Формат субтитров: softsub (SRT)-

x264 log

avs [info]: 1280x534p 1:1 @ 2500000/104271 fps (cfr)
x264 [info]: using SAR=1/1
x264 [info]: using cpu capabilities: MMX2 SSE2Fast SSSE3 SSE4.2 AVX
x264 [info]: profile High, level 4.1
x264 [info]: frame I:1017 Avg QP:14.34 size:129456
x264 [info]: frame P:37354 Avg QP:15.84 size: 72033
x264 [info]: frame B:130588 Avg QP:17.86 size: 33948
x264 [info]: consecutive B-frames: 1.5% 2.9% 7.7% 26.9% 18.7% 33.3% 4.9% 2.0% 1.0% 0.4% 0.7%
x264 [info]: mb I I16..4: 11.9% 70.7% 17.3%
x264 [info]: mb P I16..4: 0.9% 33.0% 2.7% P16..4: 19.0% 27.1% 13.1% 0.0% 0.0% skip: 4.2%
x264 [info]: mb B I16..4: 0.0% 8.0% 0.3% B16..8: 32.2% 26.2% 7.7% direct: 9.5% skip:16.1% L0:42.8% L1:38.0% BI:19.2%
x264 [info]: 8x8 transform intra:91.9% inter:53.6%
x264 [info]: coded y,uvDC,uvAC intra: 98.4% 96.9% 91.0% inter: 51.9% 38.8% 18.8%
x264 [info]: i16 v,h,dc,p: 11% 5% 24% 60%
x264 [info]: i8 v,h,dc,ddl,ddr,vr,hd,vl,hu: 12% 8% 16% 9% 12% 11% 10% 11% 12%
x264 [info]: i4 v,h,dc,ddl,ddr,vr,hd,vl,hu: 19% 7% 5% 8% 14% 13% 12% 11% 10%
x264 [info]: i8c dc,h,v,p: 58% 13% 13% 16%
x264 [info]: Weighted P-Frames: Y:3.6% UV:2.2%
x264 [info]: ref P L0: 41.7% 11.5% 17.7% 6.3% 6.1% 3.7% 4.0% 2.0% 2.2% 1.5% 1.8% 1.4% 0.0% 0.0%
x264 [info]: ref B L0: 76.2% 9.7% 4.7% 2.7% 1.8% 1.5% 1.2% 0.8% 0.7% 0.5% 0.2%
x264 [info]: ref B L1: 96.3% 3.7%
x264 [info]: kb/s:8236.84

MediaInfo

General
Unique ID : 216637776960577710672945270191274430108 (0xA2FAEB0D6938DB4EB6B1840BC6ED8E9C)
Format : Matroska
Format version : Version 2
File size : 9.42 GiB
Duration : 1h 57mn
Overall bit rate : 11.5 Mbps
Movie name : THE PURSUIT OF HAPPYNESS
Encoded date : UTC 2016-08-28 08:38:10
Writing application : mkvmerge v7.8.0 ('River Man') 32bit built on Apr 3 2015 12:11:22
Writing library : libebml v1.3.1 + libmatroska v1.4.2
Attachments : POSTER.png / LOG.txt / CronosPro-Bold.ttf / CronosPro-Semibold.ttf / CronosPro-SemiboldIt.ttf
Video
ID : 1
Format : AVC
Format/Info : Advanced Video Codec
Format profile : High@L4.1
Format settings, CABAC : Yes
Format settings, ReFrames : 12 frames
Codec ID : V_MPEG4/ISO/AVC
Duration : 1h 57mn
Bit rate : 8 013 Kbps
Width : 1 280 pixels
Height : 534 pixels
Display aspect ratio : 2.40:1
Frame rate mode : Constant
Frame rate : 23.976 (24000/1001) fps
Color space : YUV
Chroma subsampling : 4:2:0
Bit depth : 8 bits
Scan type : Progressive
Bits/(Pixel*Frame) : 0.489
Stream size : 6.57 GiB (70%)
Title : BDRip: 1280x534 (2.40:1); 8062 kbps; 0.489 bpp; 23.976 fps
Writing library : x264 core 148 r2705 3f5ed56
Encoding settings : cabac=1 / ref=12 / deblock=1:-2:-2 / analyse=0x3:0x113 / me=umh / subme=11 / psy=1 / psy_rd=1.10:0.05 / mixed_ref=1 / me_range=32 / chroma_me=1 / trellis=2 / 8x8dct=1 / cqm=0 / deadzone=21,11 / fast_pskip=0 / chroma_qp_offset=-3 / threads=6 / lookahead_threads=1 / sliced_threads=0 / nr=0 / decimate=1 / interlaced=0 / bluray_compat=0 / constrained_intra=0 / bframes=10 / b_pyramid=2 / b_adapt=2 / b_bias=0 / direct=1 / weightb=1 / open_gop=0 / weightp=2 / keyint=250 / keyint_min=23 / scenecut=40 / intra_refresh=0 / rc_lookahead=60 / rc=crf / mbtree=0 / crf=16.0 / qcomp=0.65 / qpmin=0 / qpmax=69 / qpstep=4 / vbv_maxrate=50000 / vbv_bufsize=62500 / crf_max=0.0 / nal_hrd=none / filler=0 / ip_ratio=1.40 / pb_ratio=1.30 / aq=3:0.80
Language : English
Default : Yes
Forced : No
Color range : Limited
Color primaries : BT.709
Transfer characteristics : BT.709
Matrix coefficients : BT.709
Audio #1
ID : 2
Format : AC-3
Format/Info : Audio Coding 3
Mode extension : CM (complete main)
Format settings, Endianness : Big
Codec ID : A_AC3
Duration : 1h 57mn
Bit rate mode : Constant
Bit rate : 640 Kbps
Channel(s) : 6 channels
Channel positions : Front: L C R, Side: L R, LFE
Sampling rate : 48.0 KHz
Frame rate : 31.250 fps (1536 spf)
Compression mode : Lossy
Stream size : 538 MiB (6%)
Title : DUB (BD CEE): AC3; 48 kHz; 640 kbps; 6 ch
Language : Russian
Default : Yes
Forced : No
Audio #2
ID : 3
Format : AC-3
Format/Info : Audio Coding 3
Mode extension : CM (complete main)
Format settings, Endianness : Big
Codec ID : A_AC3
Duration : 1h 57mn
Bit rate mode : Constant
Bit rate : 448 Kbps
Channel(s) : 6 channels
Channel positions : Front: L C R, Side: L R, LFE
Sampling rate : 48.0 KHz
Frame rate : 31.250 fps (1536 spf)
Compression mode : Lossy
Stream size : 376 MiB (4%)
Title : MVO: AC3; 48 kHz; 448 kbps; 6 ch
Language : Russian
Default : No
Forced : No
Audio #3
ID : 4
Format : AC-3
Format/Info : Audio Coding 3
Mode extension : CM (complete main)
Format settings, Endianness : Big
Codec ID : A_AC3
Duration : 1h 57mn
Bit rate mode : Constant
Bit rate : 448 Kbps
Channel(s) : 6 channels
Channel positions : Front: L C R, Side: L R, LFE
Sampling rate : 48.0 KHz
Frame rate : 31.250 fps (1536 spf)
Compression mode : Lossy
Stream size : 376 MiB (4%)
Title : DUB (UKRANIAN): AC3; 48 kHz; 448 kbps; 6 ch
Language : Ukrainian
Default : No
Forced : No
Audio #4
ID : 5
Format : DTS
Format/Info : Digital Theater Systems
Mode : 16
Format settings, Endianness : Big
Codec ID : A_DTS
Duration : 1h 57mn
Bit rate mode : Constant
Bit rate : 1 509 Kbps
Channel(s) : 6 channels
Channel positions : Front: L C R, Side: L R, LFE
Sampling rate : 48.0 KHz
Frame rate : 93.750 fps (512 spf)
Bit depth : 16 bits
Compression mode : Lossy
Stream size : 1.24 GiB (13%)
Title : ORIGINAL: DTS; 48 kHz; 1509 kbps; 6 ch
Language : English
Default : No
Forced : No
Audio #5
ID : 6
Format : AC-3
Format/Info : Audio Coding 3
Format profile : Dolby Digital
Mode extension : CM (complete main)
Format settings, Endianness : Big
Codec ID : A_AC3
Duration : 1h 57mn
Bit rate mode : Constant
Bit rate : 192 Kbps
Channel(s) : 2 channels
Channel positions : Front: L R
Sampling rate : 48.0 KHz
Frame rate : 31.250 fps (1536 spf)
Compression mode : Lossy
Stream size : 161 MiB (2%)
Title : ORIGINAL (COMMENTARY): AC3; 48 kHz; 192 kbps; 2 ch
Language : English
Default : No
Forced : No
Text #1
ID : 7
Format : UTF-8
Codec ID : S_TEXT/UTF8
Codec ID/Info : UTF-8 Plain Text
Title : RUSSIAN: FULL; SRT
Language : Russian
Default : No
Forced : No
Text #2
ID : 8
Format : UTF-8
Codec ID : S_TEXT/UTF8
Codec ID/Info : UTF-8 Plain Text
Title : ENGLISH: FULL; SRT
Language : English
Default : No
Forced : No
Text #3
ID : 9
Format : ASS
Codec ID : S_TEXT/ASS
Codec ID/Info : Advanced Sub Station Alpha
Compression mode : Lossless
Title : ENGLISH (cronos – jaundiced): FULL; ASS
Language : English
Default : No
Forced : No
Text #4
ID : 10
Format : UTF-8
Codec ID : S_TEXT/UTF8
Codec ID/Info : UTF-8 Plain Text
Title : ENGLISH (COMMENTARY); SRT
Language : English
Default : No
Forced : No
Menu
00:00:00.000 : en:Begining
00:05:09.017 : en:One Day at a Time
00:12:36.255 : en:Riding the Bus
00:22:25.552 : en:Two Questions
00:28:09.896 : en:Being Stupid
00:33:33.928 : en:Making Contacts
00:41:18.434 : en:Birthday Wishes
00:48:15.517 : en:Ride Share
00:55:49.512 : en:Cab Fare
01:02:17.233 : en:Go Get Happy
01:09:20.364 : en:Parking Tickets
01:17:49.456 : en:Big Interview
01:24:34.235 : en:Second Thought
01:33:57.298 : en:Linda Is Leaving
01:41:19.239 : en:Packing Up
01:48:30.128 : en:Taking Care
-

_________________
Показать сообщения:    

Текущее время: Сегодня 02:34

Часовой пояс: GMT



Вы не можете начинать темы
Вы не можете отвечать на сообщения
Вы не можете редактировать свои сообщения
Вы не можете удалять свои сообщения
Вы не можете голосовать в опросах
Вы не можете прикреплять файлы к сообщениям
Вы не можете скачивать файлы