Важное объявление!
У Нас Все раздачи мультитрекерные, при нуле пиров в релизах, можете смело вставать на закачку!
 
Автор Сообщение

HUNTER

Стаж:
4 года 4 месяца
Сообщений:
56749

Репутация: 101

[+] [-]
Вне форума [Профиль] [ЛС]

В опасности / Out on a Limb
Страна: США
Жанр: комедия, криминал, приключения
Год выпуска: 1992
Продолжительность: 01:22:54
Перевод 1: Профессиональный (многоголосый закадровый) Русский дубляж по заказу СТС
Перевод 2: Профессиональный (двухголосый закадровый)
Cубтитры: английские
Оригинальная аудиодорожка: английский
Режиссер: Франсис Вебер / Francis Veber
В ролях: Мэттью Бродерик, Джеффри Джонс, Хайди Клинг, Джон Си Райли, Мэриан Мерсер, Ларри Хэнкин, Дэвид Маргулис, Кортни Пелдон, Майкл Монкс, Эндрю Бенне...
Описание: В его бумажнике было не так много денег. Зато там была бумажка с номером телефона стоимостью более ста миллионов долларов. Терять его было непростительной ошибкой, и есть лишь одно место, где его можно найти. Правда, есть опасность в ходе этих поисков потерять жизнь…
Доп. информация: Перевод "Русский дубляж" с раздачи mersicc. Двухголосый перевод с раздачи Виталя_А. Синхронизация звука - Dreven.
Сэмпл: http://multi-up.com/1073345
Тип релиза: WEB-DL 720p
Контейнер: MKV
Видео: 1280x692 (1.850), 23.976 fps, AVC, ~4109 Kbps, 0.193 bits/pixel
Аудио 1: Russian, 48.0 KHz, AC3, 2 ch, 192 Kbps - СТС
Аудио 2: Russian, 48.0 KHz, AC3, 2 ch, 192 Kbps
Аудио 3: English, 48.0 KHz, AC3, 2 ch, 192 Kbps

MediaInfo

General
Unique ID : 245709558905960934770103387108622905002 (0xB8D9F090F5CF00A596799A542A5AAEAA)
Complete name : D:\Out on a Limb. WEB-DL 720p.mkv
Format : Matroska
Format version : Version 4 / Version 2
File size : 2.77 GiB
Duration : 1h 22mn
Overall bit rate : 4 780 Kbps
Movie name :
Encoded date : UTC 2015-10-29 09:12:46
Writing application : mkvmerge v8.4.0 ('A better way to fly') 64bit
Writing library : libebml v1.3.1 + libmatroska v1.4.2
DURATION : 01:22:53.728000000
NUMBER_OF_FRAMES : 155429
NUMBER_OF_BYTES : 119369472
_STATISTICS_WRITING_APP : mkvmerge v8.4.0 ('A better way to fly') 64bit
_STATISTICS_WRITING_DATE_UT : 2015-10-29 09:12:46
_STATISTICS_TAGS : BPS DURATION NUMBER_OF_FRAMES NUMBER_OF_BYTES
Video
ID : 1
Format : AVC
Format/Info : Advanced Video Codec
Format profile : High@L3.1
Format settings, CABAC : No
Format settings, ReFrames : 2 frames
Codec ID : V_MPEG4/ISO/AVC
Duration : 1h 22mn
Bit rate : 4 109 Kbps
Width : 1 280 pixels
Height : 692 pixels
Display aspect ratio : 1.85:1
Frame rate mode : Constant
Frame rate : 23.976 fps
Color space : YUV
Chroma subsampling : 4:2:0
Bit depth : 8 bits
Scan type : Progressive
Bits/(Pixel*Frame) : 0.193
Stream size : 2.38 GiB (86%)
Language : English
Default : Yes
Forced : No
Color range : Limited
Color primaries : BT.709
Transfer characteristics : BT.709
Matrix coefficients : BT.709
Audio #1
ID : 2
Format : AC-3
Format/Info : Audio Coding 3
Mode extension : CM (complete main)
Format settings, Endianness : Big
Codec ID : A_AC3
Duration : 1h 22mn
Bit rate mode : Constant
Bit rate : 192 Kbps
Channel(s) : 2 channels
Channel positions : Front: L R
Sampling rate : 48.0 KHz
Compression mode : Lossy
Stream size : 114 MiB (4%)
Title : СТС
Language : Russian
Default : Yes
Forced : No
Audio #2
ID : 3
Format : AC-3
Format/Info : Audio Coding 3
Mode extension : CM (complete main)
Format settings, Endianness : Big
Codec ID : A_AC3
Duration : 1h 22mn
Bit rate mode : Constant
Bit rate : 192 Kbps
Channel(s) : 2 channels
Channel positions : Front: L R
Sampling rate : 48.0 KHz
Compression mode : Lossy
Stream size : 114 MiB (4%)
Language : Russian
Default : No
Forced : No
Audio #3
ID : 4
Format : AC-3
Format/Info : Audio Coding 3
Mode extension : CM (complete main)
Format settings, Endianness : Big
Codec ID : A_AC3
Duration : 1h 22mn
Bit rate mode : Constant
Bit rate : 192 Kbps
Channel(s) : 2 channels
Channel positions : Front: L R
Sampling rate : 48.0 KHz
Compression mode : Lossy
Stream size : 114 MiB (4%)
Language : English
Default : No
Forced : No
Text
ID : 5
Format : UTF-8
Codec ID : S_TEXT/UTF8
Codec ID/Info : UTF-8 Plain Text
Language : English
Default : No
Forced : No
Menu
00:00:00.000 : en:1
00:03:06.000 : en:2
00:07:24.000 : en:3
00:11:50.000 : en:4
00:16:08.000 : en:5
00:20:42.000 : en:6
00:24:19.000 : en:7
00:28:16.000 : en:8
00:31:47.000 : en:9
00:39:17.000 : en:10
00:43:16.000 : en:11
00:50:31.000 : en:12
00:56:43.000 : en:13
00:59:38.000 : en:14
01:04:29.000 : en:15
01:11:16.000 : en:16
01:15:45.000 : en:17
01:19:22.000 : en:18

Скриншоты


_________________
Показать сообщения:    

Текущее время: Сегодня 20:32

Часовой пояс: GMT



Вы не можете начинать темы
Вы не можете отвечать на сообщения
Вы не можете редактировать свои сообщения
Вы не можете удалять свои сообщения
Вы не можете голосовать в опросах
Вы не можете прикреплять файлы к сообщениям
Вы не можете скачивать файлы