Важное объявление!
У Нас Все раздачи мультитрекерные, при нуле пиров в релизах, можете смело вставать на закачку!
 
Автор Сообщение

HUNTER

Стаж:
4 года 4 месяца
Сообщений:
56808

Репутация: 101

[+] [-]
Вне форума [Профиль] [ЛС]

В краю крови и меда / In the Land of Blood and Honey
Страна: США
Студия: GK Films
Жанр: драма, мелодрама, военный
Год выпуска: 2011
Продолжительность: 02:06:18
Перевод: Профессиональный (многоголосый закадровый)
Cубтитры: Rus, Eng
Оригинальная аудиодорожка: Bosnian
Режиссер: Анджелина Джоли / Angelina Jolie
В ролях: Зана Марьянович, Горан Костик, Раде Шербеджия, Никола Джурицко, Бранко Джурич, Джана Пиньо, Милош Тимотиевич, Федя Стукан, Доля Гавански, Альма Терзич
Описание: Балканы. 90-е годы ХХ века. Они встретились и полюбили друг друга страстно и нежно. А потом началась война, которая раскидала их по разные стороны линии фронта. Волею судьбы девушка оказалась в лагере для военнопленных, где снова его встретила. Только теперь они — враги. Неужели безумие ненависти может задушить любовь?..

Исходник: [url=viewtopic.php?t=4029537]Blu-Ray Disc[/url]
Тип релиза: BDRip 720p / Tonik
Контейнер: MKV
Видео: MPEG-4 AVC, 9901 Кбит/с, 1280x720, 24,000 fps
Аудио: Rus, 640 kb/s (6 ch), 48 kHz
Аудио 2: Bos, 640 kb/s (6 ch), 48 kHz
Формат субтитров: softsub (SRT)

MediaInfo

x264 [info]: frame I:1157 Avg QP:15.38 size:161541
x264 [info]: frame P:34239 Avg QP:16.89 size: 93946
x264 [info]: frame B:146465 Avg QP:18.71 size: 42242
x264 [info]: consecutive B-frames: 1.3% 2.9% 4.3% 7.6% 10.5% 56.0% 5.8% 0.7% 4.2% 0.9% 2.1% 1.5% 2.2%
Format : Matroska
Format version : Version 4 / Version 2
File size : 10.1 GiB
Duration : 2h 6mn
Overall bit rate : 11.4 Mbps
Movie name : В краю крови и мёда. (Tonik)
Encoded date : UTC 2016-09-22 09:33:37
Writing application : mkvmerge v7.1.0 ('Good Love') 64bit built on Jul 27 2014 13:06:55
Writing library : libebml v1.3.0 + libmatroska v1.4.1
DURATION : 02:00:34.212000000
NUMBER_OF_FRAMES : 873
NUMBER_OF_BYTES : 23291
_STATISTICS_WRITING_APP : mkvmerge v7.1.0 ('Good Love') 64bit built on Jul 27 2014 13:06:55
_STATISTICS_WRITING_DATE_UTC : 2016-09-22 09:33:37
_STATISTICS_TAGS : BPS DURATION NUMBER_OF_FRAMES NUMBER_OF_BYTES
Video
ID : 1
Format : AVC
Format/Info : Advanced Video Codec
Format profile : High@L4.1
Format settings, CABAC : Yes
Format settings, ReFrames : 9 frames
Codec ID : V_MPEG4/ISO/AVC
Duration : 2h 6mn
Bit rate : 9 901 Kbps
Width : 1 280 pixels
Height : 720 pixels
Display aspect ratio : 16:9
Frame rate mode : Constant
Frame rate : 24.000 fps
Color space : YUV
Chroma subsampling : 4:2:0
Bit depth : 8 bits
Scan type : Progressive
Bits/(Pixel*Frame) : 0.448
Stream size : 8.73 GiB (87%)
Title : Tonik
Writing library : x264 core 148 r2705 3f5ed56
Encoding settings : cabac=1 / ref=9 / deblock=1:-3:-3 / analyse=0x3:0x133 / me=umh / subme=11 / psy=1 / psy_rd=1.00:0.00 / mixed_ref=1 / me_range=32 / chroma_me=1 / trellis=2 / 8x8dct=1 / cqm=0 / deadzone=21,11 / fast_pskip=0 / chroma_qp_offset=-2 / threads=12 / lookahead_threads=3 / sliced_threads=0 / nr=0 / decimate=0 / interlaced=0 / bluray_compat=0 / constrained_intra=0 / bframes=12 / b_pyramid=2 / b_adapt=2 / b_bias=0 / direct=1 / weightb=1 / open_gop=0 / weightp=2 / keyint=250 / keyint_min=24 / scenecut=40 / intra_refresh=0 / rc=crf / mbtree=0 / crf=17.0 / qcomp=0.60 / qpmin=0 / qpmax=69 / qpstep=4 / ip_ratio=1.40 / pb_ratio=1.30 / aq=1:0.80
Language : English
Default : Yes
Forced : No
DURATION : 02:06:17.548000000
NUMBER_OF_FRAMES : 181861
NUMBER_OF_BYTES : 9590537740
_STATISTICS_WRITING_APP : mkvmerge v7.1.0 ('Good Love') 64bit built on Jul 27 2014 13:06:55
_STATISTICS_WRITING_DATE_UTC : 2016-09-22 09:33:37
_STATISTICS_TAGS : BPS DURATION NUMBER_OF_FRAMES NUMBER_OF_BYTES
Audio #1
ID : 2
Format : AC-3
Format/Info : Audio Coding 3
Mode extension : CM (complete main)
Format settings, Endianness : Big
Codec ID : A_AC3
Duration : 2h 6mn
Bit rate mode : Constant
Bit rate : 640 Kbps
Channel(s) : 6 channels
Channel positions : Front: L C R, Side: L R, LFE
Sampling rate : 48.0 KHz
Bit depth : 16 bits
Compression mode : Lossy
Stream size : 578 MiB (6%)
Language : Russian
Default : Yes
Forced : No
Audio #2
ID : 3
Format : AC-3
Format/Info : Audio Coding 3
Mode extension : CM (complete main)
Format settings, Endianness : Big
Codec ID : A_AC3
Duration : 2h 6mn
Bit rate mode : Constant
Bit rate : 640 Kbps
Channel(s) : 6 channels
Channel positions : Front: L C R, Side: L R, LFE
Sampling rate : 48.0 KHz
Bit depth : 16 bits
Compression mode : Lossy
Stream size : 578 MiB (6%)
Language : Bosnian
Default : No
Forced : No
Text #1
ID : 4
Format : UTF-8
Codec ID : S_TEXT/UTF8
Codec ID/Info : UTF-8 Plain Text
Language : Russian
Default : No
Forced : No
Text #2
ID : 5
Format : UTF-8
Codec ID : S_TEXT/UTF8
Codec ID/Info : UTF-8 Plain Text
Language : English
Default : No
Forced : No
Menu
00:00:00.000 : :Chapter 01
00:06:25.875 : :Chapter 02
00:13:29.333 : :Chapter 03
00:18:28.666 : :Chapter 04
00:23:41.708 : :Chapter 05
00:30:50.708 : :Chapter 06
00:40:02.500 : :Chapter 07
00:46:14.916 : :Chapter 08
00:56:46.666 : :Chapter 09
01:06:15.583 : :Chapter 10
01:13:15.875 : :Chapter 11
01:17:29.750 : :Chapter 12
01:23:58.583 : :Chapter 13
01:29:35.750 : :Chapter 14
01:34:38.791 : :Chapter 15
01:39:33.916 : :Chapter 16
01:47:47.416 : :Chapter 17
01:55:09.000 : :Chapter 18
02:06:17.541 : :Chapter 19

Скриншоты

Замена файла.

_________________
Показать сообщения:    

Текущее время: Сегодня 14:08

Часовой пояс: GMT



Вы не можете начинать темы
Вы не можете отвечать на сообщения
Вы не можете редактировать свои сообщения
Вы не можете удалять свои сообщения
Вы не можете голосовать в опросах
Вы не можете прикреплять файлы к сообщениям
Вы не можете скачивать файлы