Важное объявление!
У Нас Все раздачи мультитрекерные, при нуле пиров в релизах, можете смело вставать на закачку!
 
Автор Сообщение

HUNTER

Стаж:
4 года 4 месяца
Сообщений:
56822

Репутация: 101

[+] [-]
Вне форума [Профиль] [ЛС]

В гнезде грабителей / Бандитский насест / Robber’s Roost«OUTLAW GANG WAR!»
Страна: США
Жанр: вестерн
Год выпуска: 1955
Продолжительность: 01:19:50
Перевод: Профессиональный (двухголосый закадровый)
Cубтитры: нет
Режиссер: Сидней Сэлкоу / Sidney Salkow
В ролях: Джордж Монтгомери, Ричард Бун, Сильвия Финдли, Брюс Беннетт, Питер Грейвз, Тони Романо, Уоррен Стивенс, Уильям Хоппер, Стэнли Клементс, Лео Гордон и другие
Описание:
Чтобы свести к минимуму возможность кражи своего скота, богатый фермер нанимает для его охраны две конкурирующие банды.
Доп. информация: Запись со спутника с MGM HD канала.

Сэмпл: http://sendfile.su/987123
Тип релиза: HDTV 1080p
Контейнер: TS
Видео: AVC/H.264, PAL, 1920x1080 (16:9), 9 300 Кбит/сек, 25.000 fps
Аудио: русский, MP-2, 48000 Hz, 192 Кбит/сек, 2 ch
MediaInfo
Видео
Идентификатор : 224 (0xE0)
Идентификатор меню : 1 (0x1)
Формат : AVC
Формат/Информация : Advanced Video Codec
Профиль формата : High@L4.1
Параметр CABAC формата : Да
Параметр ReFrames формата : 3 кадра
Идентификатор кодека : 27
Продолжительность : 1 ч. 19 м.
Вид битрейта : Постоянный
Битрейт : 9300 Кбит/сек
Ширина : 1920 пикселей
Высота : 1080 пикселей
Соотношение сторон : 16:9
Частота кадров : 25,000 кадров/сек
Стандарт вещания : PAL
Цветовое пространство : YUV
Субдискретизация насыщенности : 4:2:0
Битовая глубина : 8 бит
Тип развёртки : Прогрессивная
Бит/(Пиксели*Кадры) : 0.179
Размер потока : 5,09 Гбайт (93%)
Основные цвета : BT.709
Характеристики трансфера : BT.709
Коэффициенты матрицы : BT.709
Аудио
Идентификатор : 192 (0xC0)
Идентификатор меню : 1 (0x1)
Формат : MPEG Audio
Версия формата : Version 1
Профиль формата : Layer 2
Идентификатор кодека : 3
Продолжительность : 1 ч. 19 м.
Вид битрейта : Постоянный
Битрейт : 192 Кбит/сек
Каналы : 2 канала
Частота : 48,0 КГц
Метод сжатия : С потерями
Задержка видео : 24 мс.
Размер потока : 110 Мбайт (2%)
Скриншот c названием фильмаСкриншоты

_________________
Показать сообщения:    

Текущее время: Сегодня 05:17

Часовой пояс: GMT



Вы не можете начинать темы
Вы не можете отвечать на сообщения
Вы не можете редактировать свои сообщения
Вы не можете удалять свои сообщения
Вы не можете голосовать в опросах
Вы не можете прикреплять файлы к сообщениям
Вы не можете скачивать файлы