Важное объявление!
У Нас Все раздачи мультитрекерные, при нуле пиров в релизах, можете смело вставать на закачку!
 
Автор Сообщение

HUNTER

Стаж:
4 года 4 месяца
Сообщений:
56809

Репутация: 101

[+] [-]
Вне форума [Профиль] [ЛС]

Бэтмен: Убийственная шутка / Batman: The Killing Joke
Страна: США
Жанр: Мультфильм, боевик, триллер, драма, криминал
Продолжительность: 01:15:00
Год выпуска: 2016
Перевод: Любительский (многоголосый закадровый)[Saint-Sound.TV]
Русские субтитры: есть
Режиссёр: Сэм Лью / Sam Liu
Роли озвучивали: Марк Хэмилл, Кари Уолгрен, Тара Стронг, Нолан Норт, Джон Ди Маджио, Кевин Конрой, Рэй Уайз, Робин Аткин Даунс, Мори Стерлинг, Фред Татаскьор
Роли озвучивали(Русская озвука): Маргарита Корш, Андрей Стакионис,Александр Луговский, Евгений Леонов, Никита Аитов,Игорь Хрусталев, Полина Касаткина, Макс Фривинг и Алексей Щегорский.
Описание: Бэтмен начинает охоту на сбежавшего короля преступного мира - Джокера. Джокер угрожает семье Гордона, показывая всю дьявольскую сущность в отражениии своего безумия...
Семпл: http://multi-up.com/1112171
Качество: BDRip 1080p
Формат: MKV
Видео: AVC,1920x1080,23,976 кадра/сек,6652 Кбит/сек
Аудио: AC-3, 48Khz, 2ch, 640 Kbps [Russian]
Аудио 2: DTS,48Khz, 6ch, 1509 Kbps [English]
Субтитры: На песню Джокера

Подробные технические данные

ОбщееУникальный идентификатор : 229032839121187032307201868336167876958 (0xAC4E1ECCB62E87B09E22B402389B795E)Полное имя : E:\Бэтмен Убийственная шутка[Saint-Sound TV]\Бэтмен Убийственная шутка[Saint-Sound TV].mkvФормат : MatroskaВерсия формата : Version 4 / Version 2Размер файла : 4,72 ГбайтПродолжительность : 1 ч. 16 м.Общий поток : 8776 Кбит/секДата кодирования : UTC 2016-07-31 11:25:56Программа кодирования : mkvmerge v6.1.0 ('Old Devil') built on Mar 2 2013 14:32:37Библиотека кодирования : libebml v1.3.0 + libmatroska v1.4.0
ВидеоИдентификатор : 1Формат : AVCФормат/Информация : Advanced Video CodecПрофиль формата : High@L4.1Параметр CABAC формата : ДаПараметр ReFrames формата : 4 кадраИдентификатор кодека : V_MPEG4/ISO/AVCПродолжительность : 1 ч. 16 м.Битрейт : 6652 Кбит/секШирина : 1920 пикселейВысота : 1080 пикселейСоотношение сторон : 16:9Режим частоты кадров : ПостоянныйЧастота кадров : 23,976 кадра/секЦветовое пространство : YUVСубдискретизация насыщенности : 4:2:0Битовая глубина : 8 битТип развёртки : ПрогрессивнаяБит/(Пиксели*Кадры) : 0.134Размер потока : 3,47 Гбайт (74%)Библиотека кодирования : x264 core 148 r2692 64f4e24Настройки программы : cabac=1 / ref=4 / deblock=1:0:0 / analyse=0x3:0x133 / me=umh / subme=7 / psy=1 / psy_rd=1.00:0.00 / mixed_ref=1 / me_range=16 / chroma_me=1 / trellis=1 / 8x8dct=1 / cqm=0 / deadzone=21,11 / fast_pskip=0 / chroma_qp_offset=-2 / threads=18 / lookahead_threads=3 / sliced_threads=0 / nr=0 / decimate=1 / interlaced=0 / bluray_compat=0 / constrained_intra=0 / bframes=3 / b_pyramid=2 / b_adapt=1 / b_bias=0 / direct=1 / weightb=1 / open_gop=0 / weightp=2 / keyint=250 / keyint_min=23 / scenecut=40 / intra_refresh=0 / rc_lookahead=40 / rc=2pass / mbtree=1 / bitrate=6652 / ratetol=1.0 / qcomp=0.60 / qpmin=0 / qpmax=69 / qpstep=4 / cplxblur=20.0 / qblur=0.5 / ip_ratio=1.40 / aq=1:1.00Язык : EnglishDefault : ДаForced : Нет
Аудио #1Идентификатор : 2Формат : AC-3Формат/Информация : Audio Coding 3Расширение режима : CM (complete main)Параметр Endianness формата : BigИдентификатор кодека : A_AC3Продолжительность : 1 ч. 16 м.Вид битрейта : ПостоянныйБитрейт : 640 Кбит/секКаналы : 2 каналаРасположение каналов : Front: L RЧастота : 48,0 КГцБитовая глубина : 16 битМетод сжатия : С потерямиРазмер потока : 352 Мбайт (7%)Язык : RussianDefault : ДаForced : Да
Аудио #2Идентификатор : 3Формат : DTSФормат/Информация : Digital Theater SystemsРежим : 16Параметр Endianness формата : BigИдентификатор кодека : A_DTSПродолжительность : 1 ч. 16 м.Вид битрейта : ПостоянныйБитрейт : 1509 Кбит/секКаналы : 6 каналовРасположение каналов : Front: L C R, Side: L R, LFEЧастота : 48,0 КГцБитовая глубина : 24 битМетод сжатия : С потерямиРазмер потока : 830 Мбайт (17%)Язык : EnglishDefault : НетForced : Нет
ТекстИдентификатор : 4Формат : UTF-8Идентификатор кодека : S_TEXT/UTF8Идентификатор кодека/Информация : UTF-8 Plain TextЯзык : RussianDefault : ДаForced : Да

Скриншоты


_________________
Показать сообщения:    

Текущее время: Сегодня 19:26

Часовой пояс: GMT



Вы не можете начинать темы
Вы не можете отвечать на сообщения
Вы не можете редактировать свои сообщения
Вы не можете удалять свои сообщения
Вы не можете голосовать в опросах
Вы не можете прикреплять файлы к сообщениям
Вы не можете скачивать файлы