Важное объявление!
У Нас Все раздачи мультитрекерные, при нуле пиров в релизах, можете смело вставать на закачку!
 
Автор Сообщение

HUNTER

Стаж:
4 года 4 месяца
Сообщений:
56842

Репутация: 101

[+] [-]
Вне форума [Профиль] [ЛС]

Бэтмен: Убийственная шутка / Batman: The Killing Joke
Страна: США
Жанр: мультфильм, боевик, триллер, драма, криминал
Продолжительность: 01:16:39
Год выпуска: 2013
Перевод: Любительский (многоголосый закадровый) - ZM-Show
Перевод: Любительский (многоголосый закадровый) - Saint Sound
Перевод: Любительский (многоголосый закадровый) - GoASound
Русские субтитры: есть

Режиссёр: Сэм Лью / Sam Liu
Роли озвучивали: Марк Хэмилл, Кари Уолгрен, Тара Стронг, Нолан Норт, Джон Ди Маджио, Кевин Конрой, Рэй Уайз, Робин Аткин Даунс, Мори Стерлинг, Фред Татаскьор
Описание: Бэтмен появляется в клинике Аркхем, где выясняет, что Джокер сумел бежать из-под охраны. Этот опасный пациент был под наблюдением, но теперь его функции развлекать лечебницу переданы другому. Тот в роли клоуна, не отдающего себе отчета в последствиях происходящего. Джокер на свободе и намерен показать окружающим, на что способен. Ошибались те, кто считал его умалишенным. Мир вокруг сошел с ума, а у Джокера есть свои планы и способы их реализации. Парк аттракционов, давно не функционирующий, куплен беглецом из клиники за копейки. Это первый шаг на пути к мечте. Джеймс Гордон становится помощником Джокера. Почему именно он? Гордон олицетворяет собой честь и мораль в Готэме, прогнившем насквозь…
Качество: [url=viewtopic.php?t=5276310]BDRip[/url]
Формат: AVI
Видео: 704x400 (1.76:1), 23.976 fps, XviD build 73 ~2242 kbps avg, 0.33 bit/pixel
Аудио: 48 kHz, AC3 Dolby Digital, 3/2 (L,C,R,l,r) + LFE ch, ~448 kbps - ZM-Show
отдельными файлами:
Аудио: 48 kHz, AC3 Dolby Digital, 3/2 (L,C,R,l,r) + LFE ch, ~448 kbps - Saint Sound
Аудио: 48 kHz, AC3 Dolby Digital, 3/2 (L,C,R,l,r) + LFE ch, ~448 kbps - GoASound
Аудио: 48 kHz, AC3 Dolby Digital, 3/2 (L,C,R,l,r) + LFE ch, ~448 kbps - оригинал
Субтитры: русские, английские

Подробные технические данные

ОбщееПолное имя : H:\Batman_The.Killing.Joke.2016.bdrip_[1.46]_[teko]\Batman_The.Killing.Joke.2016.bdrip_[1.46].aviФормат : AVIФормат/Информация : Audio Video InterleaveРазмер файла : 1,45 ГбайтПродолжительность : 1 ч. 16 м.Общий поток : 2700 Кбит/секПрограмма кодирования : VirtualDubMod 1.5.10.3 | www.virtualdub-fr.org || (build 2550/release)Библиотека кодирования : VirtualDubMod build 2550/release
ВидеоИдентификатор : 0Формат : MPEG-4 VisualПрофиль формата : Advanced Simple@L5Параметр BVOP формата : 2Параметр QPel формата : НетПараметр GMC формата : Без точки переходаПараметр матрицы формата : ВыборочнаяИдентификатор кодека : XVIDИдентификатор кодека/Подсказка : XviDПродолжительность : 1 ч. 16 м.Битрейт : 2242 Кбит/секШирина : 704 пикселяВысота : 400 пикселейСоотношение сторон : 16:9Частота кадров : 23,976 кадра/секЦветовое пространство : YUVСубдискретизация насыщенности : 4:2:0Битовая глубина : 8 битТип развёртки : ПрогрессивнаяМетод сжатия : С потерямиБит/(Пиксели*Кадры) : 0.332Размер потока : 1,20 Гбайт (83%)Библиотека кодирования : XviD 73
АудиоИдентификатор : 1Формат : AC-3Формат/Информация : Audio Coding 3Расширение режима : CM (complete main)Параметр Endianness формата : BigИдентификатор кодека : 2000Продолжительность : 1 ч. 16 м.Вид битрейта : ПостоянныйБитрейт : 448 Кбит/секКаналы : 6 каналовРасположение каналов : Front: L C R, Side: L R, LFEЧастота : 48,0 КГцБитовая глубина : 16 битМетод сжатия : С потерямиРазмер потока : 246 Мбайт (17%)Выравнивание : Разделение по промежуткамПродолжительность промежутка : 42 мс. (1,00 видеокадр)Время предзагрузки промежутка : 500 мс.
Релиз группы:
[url=viewtopic.php?t=1677970] [/url]
--

_________________
Показать сообщения:    

Текущее время: Сегодня 11:02

Часовой пояс: GMT



Вы не можете начинать темы
Вы не можете отвечать на сообщения
Вы не можете редактировать свои сообщения
Вы не можете удалять свои сообщения
Вы не можете голосовать в опросах
Вы не можете прикреплять файлы к сообщениям
Вы не можете скачивать файлы