Важное объявление!
У Нас Все раздачи мультитрекерные, при нуле пиров в релизах, можете смело вставать на закачку!
 
Автор Сообщение

HUNTER

Стаж:
4 года 4 месяца
Сообщений:
56733

Репутация: 101

[+] [-]
Вне форума [Профиль] [ЛС]

Бэтмен против Робина / Batman vs. Robin-
-Страна: США
Жанр: Мультфильм, Боевик, Приключения
Продолжительность: 01:20:00
Год выпуска: 2015
Перевод: Любительский (многоголосый закадровый) [DuBDraG ProJECT]
Русские субтитры: нет
-Режиссёр: Джей Олива / Jay Oliva
Роли озвучивали: Стюарт Аллан, Трой Бэйкер, Кевин Конрой, Тревор Дивэлл, Робин Аткин Даунс, Гриффин Глюк, Грэй Гриффин, Шон Маэр, Дэвид МакКаллум, Джейсон О’Мара и др.
Описание: Готэм-Сити продолжает оставаться клоакой, где процветает преступность, а детям точно не место. Однако герою фильма – Дэмиану Уэйну предстоит сражаться здесь. Ведь он не просто ребенок, а сын самого Бэтмена.
Дэмиан, теперь под именем Робин расследует очередное преступление. На месте происшествия происходит встреча с загадочным Талоном. Он способствует попаданию мальчика в среду таинственного общества под названием Суд Сов. Начинается опасное путешествие, где Бэтмену и Робину предстоит вступить в противостояние друг с другом. Битва будет между очень серьезными и опасными противниками!..
-Доп. информация:
Семпл: http://multi-up.com/1044371
-Качество: HDRip
Формат: AVI
Видео: MPEG4, XviD, 720x400 (16:9), 23.976 fps, 1 896 Kbps (0.275 bit/pixel)
Аудио #1: AC-3, 48.0 KHz, 2 ch, 160 Kbps, CBR (Russian) [DuBDraG ProJECT]
Аудио #2: AC-3, 48.0 KHz, 6 ch, 384 Kbps, CBR (English)
-

Подробные технические данные

GeneralComplete name : D:\Batman.vs.Robin.2015.MVO.HDRip.1400Mb.aviFormat : AVIFormat/Info : Audio Video InterleaveFile size : 1.37 GiBDuration : 1h 20mnOverall bit rate : 2 454 KbpsWriting application : VirtualDubMod 1.5.10.2 (build 2540/release)Writing library : VirtualDubMod build 2540/release
VideoID : 0Format : MPEG-4 VisualFormat profile : Advanced Simple@L5Format settings, BVOP : 2Format settings, QPel : NoFormat settings, GMC : No warppointsFormat settings, Matrix : Default (H.263)Muxing mode : Packed bitstreamCodec ID : XVIDCodec ID/Hint : XviDDuration : 1h 20mnBit rate : 1 896 KbpsWidth : 720 pixelsHeight : 400 pixelsDisplay aspect ratio : 16:9Frame rate : 23.976 fpsColor space : YUVChroma subsampling : 4:2:0Bit depth : 8 bitsScan type : ProgressiveCompression mode : LossyBits/(Pixel*Frame) : 0.275Stream size : 1.06 GiB (77%)Writing library : XviD 66
Audio #1ID : 1Format : AC-3Format/Info : Audio Coding 3Mode extension : CM (complete main)Format settings, Endianness : BigCodec ID : 2000Duration : 1h 20mnBit rate mode : ConstantBit rate : 160 KbpsChannel(s) : 2 channelsChannel positions : Front: L RSampling rate : 48.0 KHzBit depth : 16 bitsCompression mode : LossyStream size : 91.6 MiB (7%)Alignment : Split accross interleavesInterleave, duration : 42 ms (1.00 video frame)Interleave, preload duratio : 500 ms
Audio #2ID : 2Format : AC-3Format/Info : Audio Coding 3Mode extension : CM (complete main)Format settings, Endianness : BigCodec ID : 2000Duration : 1h 20mnBit rate mode : ConstantBit rate : 384 KbpsChannel(s) : 6 channelsChannel positions : Front: L C R, Side: L R, LFESampling rate : 48.0 KHzBit depth : 16 bitsCompression mode : LossyStream size : 220 MiB (16%)Alignment : Split accross interleavesInterleave, duration : 42 ms (1.00 video frame)Interleave, preload duratio : 500 ms
-

_________________
Показать сообщения:    

Текущее время: Сегодня 02:36

Часовой пояс: GMT



Вы не можете начинать темы
Вы не можете отвечать на сообщения
Вы не можете редактировать свои сообщения
Вы не можете удалять свои сообщения
Вы не можете голосовать в опросах
Вы не можете прикреплять файлы к сообщениям
Вы не можете скачивать файлы