Важное объявление!
У Нас Все раздачи мультитрекерные, при нуле пиров в релизах, можете смело вставать на закачку!
 
Автор Сообщение

HUNTER

Стаж:
4 года 4 месяца
Сообщений:
56719

Репутация: 101

[+] [-]
Вне форума [Профиль] [ЛС]

Бэтмен: Нападение на Аркхэм / Batman: Assault on Arkham

Год выпуска: 2014
Страна: США
Жанр: боевик, триллер, криминал
Продолжительность: 01:15:56
Перевод: Любительский (многоголосый закадровый) от Kapets's Studios
Русские субтитры: нет
Режиссёр: Jay Oliva / Джей Олива, Ethan Spaulding / Этан Сполдинг
Роли озвучивали: Мэттью Грей Гублер, Джанкарло Эспозито, Нил МакДонаф, Джон Ди Маджио, Трой Бэйкер, Нолан Норт, Си Си Эйч Паундер, Кевин Конрой, Хинден Уолш, Дженнифер Хейл
Описание:Секретная правительственная организация формирует спец группу «Суицидальный отряд», состоящую из наемников и убийц, чтобы проникнуть в психиатрическую лечебницу Аркхам и добыть похищенную, засекреченную информацию, из рук заключенного — Эдварда Нигмы «Загадочника».--<<Семпл>>--Над релизом работали:
Озвучивали:
kenpachi
Ormeli
TeT_Rec
kapets
Katrin Marin
PROMETHEUS
Joker_R
Nens
Krisdok--Качество: DVDRip
Формат: AVI
Видео: MPEG4 Video (H264), 720x400 (16:9), 23,976 fps, 1800 Kbps
Аудио 1: Русский, AC3, 48 KHz, 6 channels, 384 Kbps
Аудио 2: Английский, AC3, 48 KHz, 6 channels, 384 Kbps

Подробные технические данные

GeneralComplete name : D:\Sony Vegas\видео\Batman Assault on Arkham\Batman.Assault.on.Arkham.2014.DVDRip.XviD.Kapets.s.Studios.aviFormat : AVIFormat/Info : Audio Video InterleaveFile size : 1.37 GiBDuration : 1h 15mnOverall bit rate : 2 582 KbpsWriting application : VirtualDubMod 1.5.10.2 (build 2540/release)Writing library : VirtualDubMod build 2540/release
VideoID : 0Format : AVCFormat/Info : Advanced Video CodecFormat profile : Main@L3.0Format settings, CABAC : YesFormat settings, ReFrames : 2 framesCodec ID : H264Duration : 1h 15mnBit rate : 1 800 KbpsWidth : 720 pixelsHeight : 400 pixelsDisplay aspect ratio : 16:9Frame rate : 23.976 fpsColor space : YUVChroma subsampling : 4:2:0Bit depth : 8 bitsScan type : ProgressiveBits/(Pixel*Frame) : 0.261Stream size : 978 MiB (70%)Writing library : x264 core 65Encoding settings : cabac=1 / ref=2 / deblock=1:0:0 / analyse=0x1:0x111 / me=umh / subme=6 / psy_rd=1.0:0.0 / mixed_ref=0 / me_range=16 / chroma_me=1 / trellis=0 / 8x8dct=0 / cqm=0 / deadzone=21,11 / chroma_qp_offset=-2 / threads=6 / nr=0 / decimate=1 / mbaff=0 / bframes=2 / b_pyramid=0 / b_adapt=1 / b_bias=0 / direct=1 / wpredb=0 / keyint=240 / keyint_min=24 / scenecut=40(pre) / rc=2pass / bitrate=1800 / ratetol=1.0 / qcomp=0.60 / qpmin=10 / qpmax=51 / qpstep=4 / cplxblur=20.0 / qblur=0.5 / ip_ratio=1.40 / pb_ratio=1.30 / aq=1:1.00Color primaries : BT.601 NTSCTransfer characteristics : BT.709Matrix coefficients : BT.601
Audio #1ID : 1Format : AC-3Format/Info : Audio Coding 3Mode extension : CM (complete main)Format settings, Endianness : BigCodec ID : 2000Duration : 1h 15mnBit rate mode : ConstantBit rate : 384 KbpsChannel count : 6 channelsChannel positions : Front: L C R, Side: L R, LFESampling rate : 48.0 KHzBit depth : 16 bitsCompression mode : LossyStream size : 209 MiB (15%)Alignment : Split accross interleavesInterleave, duration : 42 ms (1.00 video frame)Interleave, preload duration : 500 ms
Audio #2ID : 2Format : AC-3Format/Info : Audio Coding 3Mode extension : CM (complete main)Format settings, Endianness : BigCodec ID : 2000Duration : 1h 15mnBit rate mode : ConstantBit rate : 384 KbpsChannel count : 6 channelsChannel positions : Front: L C R, Side: L R, LFESampling rate : 48.0 KHzBit depth : 16 bitsCompression mode : LossyStream size : 209 MiB (15%)Alignment : Split accross interleavesInterleave, duration : 42 ms (1.00 video frame)Interleave, preload duration : 500 ms

Скриншоты


_________________
Показать сообщения:    

Текущее время: Сегодня 18:44

Часовой пояс: GMT



Вы не можете начинать темы
Вы не можете отвечать на сообщения
Вы не можете редактировать свои сообщения
Вы не можете удалять свои сообщения
Вы не можете голосовать в опросах
Вы не можете прикреплять файлы к сообщениям
Вы не можете скачивать файлы