Важное объявление!
У Нас Все раздачи мультитрекерные, при нуле пиров в релизах, можете смело вставать на закачку!
 
Автор Сообщение

HUNTER

Стаж:
4 года 4 месяца
Сообщений:
56848

Репутация: 101

[+] [-]
Вне форума [Профиль] [ЛС]

Бэтмен: Нападение на Аркхэм
Batman: Assault on Arkham
Страна: США
Жанр: боевик, триллер, криминал
Продолжительность: 01:15:56
Год выпуска: 2014
Перевод 1: Любительский (многоголосый закадровый) ZM-SHOW
Перевод 2: Любительский (многоголосый закадровый) Saint Sound
Cубтитры: русские (Dakota Family Translators), английские-Режиссёр: Jay Oliva / Джей Олива, Ethan Spaulding / Этан Сполдинг
Роли озвучивали: Мэттью Грей Гублер, Джанкарло Эспозито, Нил МакДонаф, Джон Ди Маджио, Трой Бэйкер, Нолан Норт, Си Си Эйч Паундер, Кевин Конрой, Хинден Уолш, Дженнифер Хейл-Описание: Секретная правительственная организация формирует спец группу «Суицидальный отряд», состоящую из наемников и убийц, чтобы проникнуть в психиатрическую лечебницу Аркхам и добыть похищенную, засекреченную информацию, из рук заключенного — Эдварда Нигмы «Загадочника».
-Сэмпл-Качество: BDRemux
Формат: MKV
Видео: AVC, 1920x1080, 23,976 fps, 17905 kbps
Аудио RUS#1: AC3, 48000 Hz, 2 ch, 192 kbps - ZM-SHOW
Аудио RUS#2: AC3, 48000 Hz, 2 ch, 192 kbps - Saint Sound
Аудио ENG: DTS-HD Master Audio, 48000 Hz, 6 ch, 4389 kbps / 24-bit (DTS Core: 5.1 / 48 kHz / 1509 kbps)
Субтитры: русские, английские

Подробные технические данные

Формат : Matroska
Версия формата : Version 2
Размер файла : 12,0 Гбайт
Продолжительность : 1 ч. 15 м.
Режим общего битрейта : Переменный
Общий поток : 22,7 Мбит/сек
Дата кодирования : UTC 2014-08-19 11:59:43
Программа кодирования : mkvmerge v5.8.0 ('No Sleep / Pillow') built on Sep 2 2012 15:37:04
Библиотека кодирования : libebml v1.2.3 + libmatroska v1.3.0
Видео
Идентификатор : 1
Формат : AVC
Формат/Информация : Advanced Video Codec
Профиль формата : High@L4.1
Параметр CABAC формата : Да
Параметр ReFrames формата : 2 кадра
Идентификатор кодека : V_MPEG4/ISO/AVC
Продолжительность : 1 ч. 15 м.
Вид битрейта : Переменный
Ширина : 1920 пикселей
Высота : 1080 пикселей
Соотношение сторон : 16:9
Режим частоты кадров : Постоянный
Частота кадров : 23,976 кадра/сек
Цветовое пространство : YUV
Субдискретизация насыщенности : 4:2:0
Битовая глубина : 8 бит
Тип развёртки : Прогрессивная
Default : Да
Forced : Нет
Аудио #1
Идентификатор : 2
Формат : AC-3
Формат/Информация : Audio Coding 3
Расширение режима : CM (complete main)
Параметр Endianness формата : Big
Идентификатор кодека : A_AC3
Продолжительность : 1 ч. 15 м.
Вид битрейта : Постоянный
Битрейт : 192 Кбит/сек
Каналы : 2 канала
Расположение каналов : Front: L R
Частота : 48,0 КГц
Битовая глубина : 16 бит
Метод сжатия : С потерями
Размер потока : 104 Мбайт (1%)
Заголовок : ZM-SHOW
Язык : Russian
Default : Да
Forced : Нет
Аудио #2
Идентификатор : 3
Формат : AC-3
Формат/Информация : Audio Coding 3
Расширение режима : CM (complete main)
Параметр Endianness формата : Big
Идентификатор кодека : A_AC3
Продолжительность : 1 ч. 15 м.
Вид битрейта : Постоянный
Битрейт : 192 Кбит/сек
Каналы : 2 канала
Расположение каналов : Front: L R
Частота : 48,0 КГц
Битовая глубина : 16 бит
Метод сжатия : С потерями
Размер потока : 104 Мбайт (1%)
Заголовок : Saint Sound
Язык : Russian
Default : Нет
Forced : Нет
Аудио #3
Идентификатор : 4
Формат : DTS
Формат/Информация : Digital Theater Systems
Профиль формата : MA / Core
Режим : 16
Параметр Endianness формата : Big
Идентификатор кодека : A_DTS
Продолжительность : 1 ч. 15 м.
Вид битрейта : Переменный
Битрейт : Неизвестно / 1509 Кбит/сек
Каналы : 6 каналов
Расположение каналов : Front: L C R, Side: L R, LFE
Частота : 48,0 КГц
Битовая глубина : 24 бит
Метод сжатия : Без потерь / Lossy
Язык : English
Default : Нет
Forced : Нет
Текст #1
Идентификатор : 5
Формат : UTF-8
Идентификатор кодека : S_TEXT/UTF8
Идентификатор кодека/Информация : UTF-8 Plain Text
Язык : Russian
Default : Нет
Forced : Нет
Текст #2
Идентификатор : 6
Формат : UTF-8
Идентификатор кодека : S_TEXT/UTF8
Идентификатор кодека/Информация : UTF-8 Plain Text
Язык : English
Default : Нет
Forced : Нет

Скриншоты


_________________
Показать сообщения:    

Текущее время: Сегодня 02:11

Часовой пояс: GMT



Вы не можете начинать темы
Вы не можете отвечать на сообщения
Вы не можете редактировать свои сообщения
Вы не можете удалять свои сообщения
Вы не можете голосовать в опросах
Вы не можете прикреплять файлы к сообщениям
Вы не можете скачивать файлы
Наши партнеры: интернет магазин Ивановского трикотажа textilla.ru