Важное объявление!
У Нас Все раздачи мультитрекерные, при нуле пиров в релизах, можете смело вставать на закачку!
 
Автор Сообщение

HUNTER

Стаж:
4 года 4 месяца
Сообщений:
56772

Репутация: 101

[+] [-]
Вне форума [Профиль] [ЛС]

Бэтмен: Маска Фантазма / Batman: Mask of the Phantasm
Год выпуска: 1993
Страна: США
Жанр: анимация, детектив, криминал, триллер, мелодрама
Продолжительность: 01:16:31
Перевод: 1) двухголосный - Петр Гланц и Инна Королева (перевод текста - релиз-группа 'DisneyJazz'),
2) авторский одноголосный - Вартан Дохалов
Русские субтитры: есть
Режиссер: Эрик Радомски, Брюс В. Тимм
В ролях: Кевин Конрой, Дана Дилэйни, Марк Хэмилл, Харт Бокнер, Стейси Кич, Эйб Вигода, Дик Миллер, Джон П. Райан, Ефрем Цимбалист мл., Боб Хатингс, Роберт Костанцо и другие
Описание:
В Готэме появляется новый борец с преступностью - Фантазм, который, в отличие от Бэтмена, попросту убивает уголовников. От его руки гибнут мафиозные боссы, являющиеся членами старой банды, орудовавшей в городе еще до появления Человека-Летучей Мыши. Главарь банды - именно он является следующей мишенью Фантазма. Идя по следу убийцы, Бэтмен приходит к выводу, что тот связан с событиями из его прошлого.-Качество: DVDRip
Формат: .avi
Видео кодек: XviD
Видео: XviD, 640x480 (4:3), 1950 kbps, 23,976fps, 0.265 bit/pixel
Аудио кодек: AC3 ACM Codec
Аудио 1: AC3 Dolby Digital, stereo/2.0 (L,R), CBR 192 kbps, 48000Hz (русский DVO - Петр Гланц и Инна Королева)
Аудио 2: AC3 Dolby Digital, stereo/2.0 (L,R), CBR 192 kbps, 48000Hz (русский AVO - Вартан Дохалов)
Аудио 3: AC3 Dolby Digital, stereo/2.0 (L,R), CBR 192 kbps, 48000Hz (оригинальный английский)-Представляем для ознакомления:
sample 1 - http://multi-up.com/983561
sample 2 - http://multi-up.com/983562-Mediainfo
GeneralComplete name : E:\Upload\Batman - Mask of the Phantasm (Fullscreen Version)_ripped by Romych\Batman - Mask of the Phantasm (Fullscreen Version).aviFormat : AVIFormat/Info : Audio Video InterleaveFile size : 1.36 GiBDuration : 1h 16mnOverall bit rate : 2 545 KbpsWriting application : VirtualDubMod 1.5.10.3 | www.virtualdub-fr.org || (build 2550/release)Writing library : VirtualDubMod build 2550/release
VideoID : 0Format : MPEG-4 VisualFormat profile : Advanced Simple@L5Format settings, BVOP : YesFormat settings, QPel : NoFormat settings, GMC : No warppointsFormat settings, Matrix : Default (H.263)Codec ID : XVIDCodec ID/Hint : XviDDuration : 1h 16mnBit rate : 1 950 KbpsWidth : 640 pixelsHeight : 480 pixelsDisplay aspect ratio : 4:3Frame rate : 23.976 fpsColor space : YUVChroma subsampling : 4:2:0Bit depth : 8 bitsScan type : ProgressiveCompression mode : LossyBits/(Pixel*Frame) : 0.265Stream size : 1.04 GiB (77%)Writing library : XviD 1.2.1 (UTC 2008-12-04)
Audio #1ID : 1Format : AC-3Format/Info : Audio Coding 3Mode extension : CM (complete main)Format settings, Endianness : BigCodec ID : 2000Duration : 1h 16mnBit rate mode : ConstantBit rate : 192 KbpsChannel(s) : 2 channelsChannel positions : Front: L RSampling rate : 48.0 KHzBit depth : 16 bitsCompression mode : LossyStream size : 105 MiB (8%)Alignment : Split accross interleavesInterleave, duration : 42 ms (1.00 video frame)Interleave, preload duration : 500 ms
Audio #2ID : 2Format : AC-3Format/Info : Audio Coding 3Mode extension : CM (complete main)Format settings, Endianness : BigCodec ID : 2000Duration : 1h 16mnBit rate mode : ConstantBit rate : 192 KbpsChannel(s) : 2 channelsChannel positions : Front: L RSampling rate : 48.0 KHzBit depth : 16 bitsCompression mode : LossyStream size : 105 MiB (8%)Alignment : Split accross interleavesInterleave, duration : 42 ms (1.00 video frame)Interleave, preload duration : 500 ms
Audio #3ID : 3Format : AC-3Format/Info : Audio Coding 3Format profile : Dolby DigitalMode extension : CM (complete main)Format settings, Endianness : BigCodec ID : 2000Duration : 1h 16mnBit rate mode : ConstantBit rate : 192 KbpsChannel(s) : 2 channelsChannel positions : Front: L RSampling rate : 48.0 KHzBit depth : 16 bitsCompression mode : LossyStream size : 105 MiB (8%)Alignment : Split accross interleavesInterleave, duration : 42 ms (1.00 video frame)Interleave, preload duration : 500 ms

-
Скриншот с названиемСкриншоты-Дополнительная информация:
- DVD-Rip сделан из лицензированного 'DVD-5 R1' полноэкранной версии' (большое спасибо kabal3000 );
- Автор DVD-rip'а - я, т.е. - Romych;
- Не рекомендуется к просмотру лицам, не достигшим 13 лет;
- Оригинальный саундтрек можно скачать этой раздаче (большое спасибо medvezhonokkkk);
- Номинирован на 'Annie Awards' в 1994 году в категории "Лучший Анимационный Фильм"/"Best Animated Film";
- Фантазм - персонаж, созданный специально для анимационного полнометражного фильма, в комиксах не встречается;
- Полет камеры среди небоскребов при начальных титрах, сделанный на компьютере,
первоначально предполагали использовать для мультсериала, но это не было сделано;
- Мисс Бэмби, в адрес которой отпускает ироничный комментарий Альфред на вечеринке, упоминалась в первом эпизоде BTAS – "On Leather Wings",
существует информация, что Бэмби озвучила Арлин Соркин (в мультсериале озвучивает персонажа Харли Куинн);
- На экране компьютера в Бэтпещере появляются фамилии Адамс и О’Нил - это знаменитый дуэт, работавший над комиксами
о Рыцаре Ночи в 70-х. Другая пара имен на том же экране: Пакетт и Петерсон - напоминание о Келли Пакетте и Скотте Петерсоне,
создателях BTAS-комиксов;
- Эйб Вигода, озвучивший Валестру, играл гангстера Сальваторе Тессио в первом “Крестном отце”;
- 1994 году была создана комикс-адаптация полнометражного анимационного фильма, но с изменениями в плане сцен драк
и некоторых диалогов; автор Келли Пакетт, художник Майк Паробек.-Приятного Вам просмотра =]

_________________
Показать сообщения:    

Текущее время: Сегодня 11:00

Часовой пояс: GMT



Вы не можете начинать темы
Вы не можете отвечать на сообщения
Вы не можете редактировать свои сообщения
Вы не можете удалять свои сообщения
Вы не можете голосовать в опросах
Вы не можете прикреплять файлы к сообщениям
Вы не можете скачивать файлы