Важное объявление!
У Нас Все раздачи мультитрекерные, при нуле пиров в релизах, можете смело вставать на закачку!
 
Автор Сообщение

HUNTER

Стаж:
4 года 4 месяца
Сообщений:
56839

Репутация: 101

[+] [-]
Вне форума [Профиль] [ЛС]

Бэтмен: Дурная кровь
Batman: Bad Blood
Год выпуска: 2016
Страна: США
Жанр: мультфильм
Продолжительность: 01:12:39
Перевод: субтитры - Dakota Family Translators
русские субтитры: есть-Режиссёр: Джей Олива : Jay Oliva-Роли озвучивали: Стюарт Аллан, Морена Баккарин, Стивен Блум, Гай Чарльз, Джеймс Гаррет, Эрни Хадсон, Шон Маэр, Джейсон О’Мара, Ивонн Страховски, Трэвис Уиллингэм-Описание: В Готэме происходит неожиданное: некий еретик «убивает» Бэтмена, свидетелем чего становится Бэтвумен. Однако команде Летучей мыши горевать некогда, ведь зло не дремлет. Теперь оставшимся напарникам Бэтмена — Найтвингу (Дик Грейсон) и Робину (сын Бэтмена — Дэмиан Уэйн) — предстоит занять его пост и защищать жителей темного города.- релиз: -Качество: WEB-DL 1080p
Формат: MKV
Видео кодек: AVC
Аудио кодек: AC3
Видео: 1916x1076 , 23,976 fps, ~4985 kbps avg, 0.101 bit/pixel
Аудио: [ENG] 48 kHz, AC3 Dolby Digital, 3/2 (L,C,R,l,r) + LFE ch, ~384 kbps avg
субтитры: русские
навигация по главам: 9 глав (не именные)

субтитры

1
00:00:13,780 --> 00:00:15,110
К другим новостям.
2
00:00:15,110 --> 00:00:17,280
Сегодня днем неизвестные в масках
3
00:00:17,280 --> 00:00:18,610
похитили подручного в банде
4
00:00:18,610 --> 00:00:21,120
Черной Маски, Чака Сола.
5
00:00:21,120 --> 00:00:23,320
Подозревается, что Сол стал жертвой
6
00:00:23,320 --> 00:00:24,790
войны за территорию,
7
00:00:24,790 --> 00:00:27,350
вспыхнувшей между мафией
и новой бандой-конкурентом,
8
00:00:27,360 --> 00:00:28,790
состоящей из
технически оснащенных преступников,
9
00:00:28,790 --> 00:00:30,890
известных своим недавним
столкновением с Бэтменом.
10
00:00:32,290 --> 00:00:33,960
Я ничего не знаю о поставке оружия, Таск.
11
00:00:33,960 --> 00:00:36,500
Маска не говорил нам...
12
00:00:36,500 --> 00:00:38,700
Постарайся получше, Чаки.
13
00:00:38,700 --> 00:00:40,200
Мы не собираемся торчать тут всю ночь.
14
00:00:43,870 --> 00:00:49,040
Электрошокер
немного нервничает,
когда кто-то врет.
15
00:00:50,210 --> 00:00:53,080
Когда будет поставка оружия?

MediaInfo

Общее
Уникальный идентификатор : 245536940886244286754173737275435726616 (0xB8B8B1D73E581852B7DA11FEC9DF3718)
Полное имя : D:\Batman\Batman. Bad Blood.2016.WEB-DL 1080p.mkv
Формат : Matroska
Версия формата : Version 4 / Version 2
Размер файла : 2,78 Гбайт
Продолжительность : 1 ч. 12 м.
Общий поток : 5478 Кбит/сек
Дата кодирования : UTC 2016-01-22 05:15:27
Программа кодирования : mkvmerge v7.1.0 ('Good Love') 32bit built on Jul 27 2014 12:59:18
Библиотека кодирования : libebml v1.3.0 + libmatroska v1.4.1
DURATION : 01:09:31.630000000
NUMBER_OF_FRAMES : 799
NUMBER_OF_BYTES : 39438
_STATISTICS_WRITING_APP : mkvmerge v7.1.0 ('Good Love') 32bit built on Jul 27 2014 12:59:18
_STATISTICS_WRITING_DATE_UTC : 2016-01-22 05:15:27
_STATISTICS_TAGS : BPS DURATION NUMBER_OF_FRAMES NUMBER_OF_BYTES
Видео
Идентификатор : 1
Формат : AVC
Формат/Информация : Advanced Video Codec
Профиль формата : High@L4
Параметр CABAC формата : Да
Параметр ReFrames формата : 4 кадра
Идентификатор кодека : V_MPEG4/ISO/AVC
Продолжительность : 1 ч. 12 м.
Битрейт : 4985 Кбит/сек
Ширина : 1916 пикселей
Высота : 1076 пикселей
Соотношение сторон : 16:9
Режим частоты кадров : Постоянный
Частота кадров : 23,976 кадра/сек
Цветовое пространство : YUV
Субдискретизация насыщенности : 4:2:0
Битовая глубина : 8 бит
Тип развёртки : Прогрессивная
Бит/(Пиксели*Кадры) : 0.101
Размер потока : 2,53 Гбайт (91%)
Язык : English
Default : Да
Forced : Нет
Цветовой диапазон : Limited
Основные цвета : BT.709
Характеристики трансфера : BT.709
Коэффициенты матрицы : BT.709
Аудио
Идентификатор : 2
Формат : AC-3
Формат/Информация : Audio Coding 3
Расширение режима : CM (complete main)
Параметр Endianness формата : Big
Идентификатор кодека : A_AC3
Продолжительность : 1 ч. 12 м.
Вид битрейта : Постоянный
Битрейт : 384 Кбит/сек
Каналы : 6 каналов
Расположение каналов : Front: L C R, Side: L R, LFE
Частота : 48,0 КГц
Метод сжатия : С потерями
Размер потока : 200 Мбайт (7%)
Заголовок : ENG
Язык : English
Default : Да
Forced : Нет
Текст #1
Идентификатор : 3
Формат : UTF-8
Идентификатор кодека : S_TEXT/UTF8
Идентификатор кодека/Информация : UTF-8 Plain Text
Заголовок : rus sub
Язык : Russian
Default : Да
Forced : Нет
Текст #2
Идентификатор : 4
Формат : UTF-8
Идентификатор кодека : S_TEXT/UTF8
Идентификатор кодека/Информация : UTF-8 Plain Text
Заголовок : eng sub
Язык : English
Default : Нет
Forced : Нет
Меню
00:00:00.000 : en:1
00:05:12.000 : en:2
00:12:40.000 : en:3
00:19:06.000 : en:4
00:29:44.000 : en:5
00:40:32.000 : en:6
00:48:04.000 : en:7
01:00:29.000 : en:8
01:09:32.000 : en:9

_________________
Показать сообщения:    

Текущее время: Сегодня 06:57

Часовой пояс: GMT



Вы не можете начинать темы
Вы не можете отвечать на сообщения
Вы не можете редактировать свои сообщения
Вы не можете удалять свои сообщения
Вы не можете голосовать в опросах
Вы не можете прикреплять файлы к сообщениям
Вы не можете скачивать файлы