Важное объявление!
У Нас Все раздачи мультитрекерные, при нуле пиров в релизах, можете смело вставать на закачку!
 
Автор Сообщение

HUNTER

Стаж:
4 года 4 месяца
Сообщений:
56734

Репутация: 101

[+] [-]
Вне форума [Профиль] [ЛС]


Бэтмен: Дурная кровь
Batman: Bad Blood
-
Год выпуска: 2016
Страна: США
Жанр: мультфильм
Продолжительность: 01:12:42
Перевод: Профессиональный (Многоголосый закадровый)
русские субтитры: есть-Режиссёр: Джей Олива : Jay Oliva-Роли озвучивали: Стюарт Аллан, Морена Баккарин, Стивен Блум, Гай Чарльз, Джеймс Гаррет, Эрни Хадсон, Шон Маэр, Джейсон О’Мара, Ивонн Страховски, Трэвис Уиллингэм-ОписаниеВ Готэме происходит неожиданное: некий еретик «убивает» Бэтмена, свидетелем чего становится Бэтвумен. Однако команде Летучей мыши горевать некогда, ведь зло не дремлет. Теперь оставшимся напарникам Бэтмена — Найтвингу (Дик Грейсон) и Робину (сын Бэтмена — Дэмиан Уэйн) — предстоит занять его пост и защищать жителей темного города.- релиз: -Качество: BDRip-AVC [url=viewtopic.php?t=4481554]BDRemux 1080p[/url] -Azureus-
Формат: MKV
Видео кодек: AVC
Аудио кодек: AC3
Видео: AVC 2075 Kbps 1152 x 648 (1.778) 23.976 fps
Аудио #1: [RUS] 48 kHz, AC3 Dolby Digital, 2/0 (L,R) ch, ~192 kbps
Аудио #2: [ENG] AC-3 448 Kbps 6 channels, 48.0 KHz
субтитры: русские, английские
навигация по главам: 9 глав (не именные)

Скриншоты



MediaInfo | Log

Log
x264 [info]: frame I:1091 Avg QP: 9.82 size: 90486
x264 [info]: frame P:27287 Avg QP:11.48 size: 23944
x264 [info]: frame B:76188 Avg QP:12.34 size: 5357
x264 [info]: consecutive B-frames: 4.4% 7.1% 8.0% 42.7% 10.5% 11.5% 2.7% 4.7% 1.6% 3.1% 1.1% 1.1% 1.4%
x264 [info]: mb I I16..4: 14.0% 50.9% 35.0%
x264 [info]: mb P I16..4: 3.1% 11.1% 4.8% P16..4: 24.3% 23.4% 9.6% 2.4% 0.4% skip:20.9%
x264 [info]: mb B I16..4: 0.7% 1.2% 0.5% B16..8: 24.9% 12.1% 2.0% direct: 2.6% skip:56.1% L0:48.4% L1:46.4% BI: 5.2%
x264 [info]: 8x8 transform intra:55.3% inter:39.9%
x264 [info]: direct mvs spatial:99.9% temporal:0.1%
x264 [info]: coded y,uvDC,uvAC intra: 59.8% 75.1% 68.4% inter: 8.0% 10.3% 6.5%
x264 [info]: i16 v,h,dc,p: 57% 16% 7% 20%
x264 [info]: i8 v,h,dc,ddl,ddr,vr,hd,vl,hu: 13% 13% 25% 7% 7% 7% 8% 8% 12%
x264 [info]: i4 v,h,dc,ddl,ddr,vr,hd,vl,hu: 17% 13% 22% 7% 9% 8% 8% 7% 9%
x264 [info]: i8c dc,h,v,p: 43% 32% 16% 9%
x264 [info]: Weighted P-Frames: Y:1.9% UV:1.5%
x264 [info]: ref P L0: 56.2% 2.9% 15.0% 6.9% 4.7% 4.2% 3.1% 2.0% 1.6% 1.7% 1.4% 0.2% 0.0%
x264 [info]: ref B L0: 70.2% 12.1% 6.3% 3.2% 2.5% 1.9% 1.7% 1.1% 0.7% 0.4%
x264 [info]: ref B L1: 92.4% 7.6%
x264 [info]: kb/s:2128.25
x264 [total]: encoded 104566 frames, 9.93 fps, 2128.25 kb/s, duration 2:55:33.25
Format : Matroska
Format version : Version 4 / Version 2
File size : 1.41 GiB
Duration : 1h 12mn
Overall bit rate : 2 770 Kbps
Encoded date : UTC 2016-02-24 10:20:54
Writing application : mkvmerge v6.7.0 ('Back to the Ground') 32bit built on Jan 8 2014 15:03:17
Writing library : libebml v1.3.0 + libmatroska v1.4.1
Video
ID : 1
Format : AVC
Format/Info : Advanced Video Codec
Format profile : High@L4.1
Format settings, CABAC : Yes
Format settings, ReFrames : 11 frames
Codec ID : V_MPEG4/ISO/AVC
Duration : 1h 12mn
Bit rate : 2 075 Kbps
Width : 1 152 pixels
Height : 648 pixels
Display aspect ratio : 16:9
Frame rate mode : Constant
Frame rate : 23.976 fps
Color space : YUV
Chroma subsampling : 4:2:0
Bit depth : 8 bits
Scan type : Progressive
Bits/(Pixel*Frame) : 0.116
Stream size : 1.05 GiB (75%)
Title : Batman: Bad Blood (2016) [rutracker.org]
Writing library : x264 core 148 r2638kMod 7599210
Encoding settings : cabac=1 / ref=11 / deblock=1:-2:-2 / analyse=0x3:0x133 / me=umh / subme=11 / psy=1 / fade_compensate=0.00 / psy_rd=1.00:0.05 / mixed_ref=1 / me_range=48 / chroma_me=1 / trellis=2 / 8x8dct=1 / cqm=0 / deadzone=21,11 / fast_pskip=0 / chroma_qp_offset=-3 / threads=12 / lookahead_threads=3 / sliced_threads=0 / nr=0 / decimate=1 / interlaced=0 / bluray_compat=0 / constrained_intra=0 / fgo=0 / bframes=12 / b_pyramid=2 / b_adapt=2 / b_bias=0 / direct=3 / weightb=1 / open_gop=0 / weightp=2 / keyint=250 / keyint_min=23 / scenecut=40 / intra_refresh=0 / rc_lookahead=60 / rc=crf / mbtree=0 / crf=17.0000 / qcomp=0.60 / qpmin=0 / qpmax=69 / qpstep=4 / vbv_maxrate=50000 / vbv_bufsize=62500 / crf_max=0.0 / nal_hrd=none / filler=0 / ip_ratio=1.40 / pb_ratio=1.30 / aq=3:0.90
Language : English
Default : Yes
Forced : No
Audio #1
ID : 2
Format : AC-3
Format/Info : Audio Coding 3
Mode extension : CM (complete main)
Format settings, Endianness : Big
Codec ID : A_AC3
Duration : 1h 12mn
Bit rate mode : Constant
Bit rate : 192 Kbps
Channel(s) : 2 channels
Channel positions : Front: L R
Sampling rate : 48.0 KHz
Compression mode : Lossy
Stream size : 99.8 MiB (7%)
Title : MVO
Language : Russian
Default : Yes
Forced : No
Audio #2
ID : 3
Format : AC-3
Format/Info : Audio Coding 3
Mode extension : CM (complete main)
Format settings, Endianness : Big
Codec ID : A_AC3
Duration : 1h 12mn
Bit rate mode : Constant
Bit rate : 448 Kbps
Channel(s) : 6 channels
Channel positions : Front: L C R, Side: L R, LFE
Sampling rate : 48.0 KHz
Compression mode : Lossy
Stream size : 233 MiB (16%)
Title : Original
Language : English
Default : No
Forced : No
Text #1
ID : 4
Format : UTF-8
Codec ID : S_TEXT/UTF8
Codec ID/Info : UTF-8 Plain Text
Title : Full
Language : Russian
Default : No
Forced : No
Text #2
ID : 5
Format : UTF-8
Codec ID : S_TEXT/UTF8
Codec ID/Info : UTF-8 Plain Text
Title : Full
Language : English
Default : No
Forced : No
Text #3
ID : 6
Format : UTF-8
Codec ID : S_TEXT/UTF8
Codec ID/Info : UTF-8 Plain Text
Title : SDH
Language : English
Default : No
Forced : No
Menu
00:00:00.000 : en:00:00:00.000
00:05:13.897 : en:00:05:13.897
00:12:40.301 : en:00:12:40.301
00:19:07.229 : en:00:19:07.229
00:29:44.116 : en:00:29:44.116
00:40:32.847 : en:00:40:32.847
00:48:04.465 : en:00:48:04.465
01:00:26.998 : en:01:00:26.998
01:09:33.086 : en:01:09:33.086

_________________
Показать сообщения:    

Текущее время: Сегодня 17:58

Часовой пояс: GMT



Вы не можете начинать темы
Вы не можете отвечать на сообщения
Вы не можете редактировать свои сообщения
Вы не можете удалять свои сообщения
Вы не можете голосовать в опросах
Вы не можете прикреплять файлы к сообщениям
Вы не можете скачивать файлы