Важное объявление!
У Нас Все раздачи мультитрекерные, при нуле пиров в релизах, можете смело вставать на закачку!
 
Автор Сообщение

HUNTER

Стаж:
4 года 4 месяца
Сообщений:
56842

Репутация: 101

[+] [-]
Вне форума [Профиль] [ЛС]

Бэтмен: Год первый : Batman: Year One«A merciless crime - turns a man into an outlaw»
Год выпуска: 2011
Страна: США
Жанр: мультфильм, боевик, криминал
Продолжительность: 01:04:09
Перевод:
Любительский (Многоголосый закадровый) - Iron-Sound
Любительский (Многоголосый закадровый) - ZM-SHOW
Одноголосый закадровый
русские субтитры: есть-Режиссёр: Сэм Лью : Sam Liu, Лоурен Монтгомери : Lauren Montgomery-Роли озвучивали: Брайан Крэнстон, Бен МакКензи, Элиза Душку, Джон Полито, Алекс Рокко, Кэти Сакхофф, Сара Бэллэнтайн, Джефф Беннетт, Стивен Блум, Роурк Критчлоу-Описание: История становления героя в маске летучей мыши. По молодости Брюс Уэйн на пути борьбы с преступностью набивает шишку за шишкой, параллельно выстраивая рабочие взаимоотношения с детективом Джеймсом Гордоном. Последний, кстати сказать, не просто играет привычную роль честного копа, но еще и живет личной жизнью, в которую входит и романтическая привязанность к коллеге по работе Саре Эссен. А в это время Селина Кайл начинает менять свою жизнь, начиная непосредственно с собственной личности.- релиз: -Качество: BDRemux 1080p
Формат: MKV
Видео кодек: AVC
Аудио кодек: AC3 : DTS MA
Видео: 1980x1080 , 23,976 fps, ~19,9 Мbps avg, 0.504 bit/pixel
Аудио #1: [RUS] 48 kHz, AC3 Dolby Digital, 3/2 (L,C,R,l,r) + LFE ch, ~384 kbps - Iron-Sound
Аудио #2: [RUS] 48 kHz, AC3 Dolby Digital, 3/2 (L,C,R,l,r) + LFE ch, ~448 kbps - ZM-SHOW
Аудио #3: [RUS] 48 kHz, AC3 Dolby Digital, 2/0 (L,R) ch, ~192 kbps kbps avg - VO
Аудио #4: [ENG] DTS-HD MA / 5.1 / 48 kHz / 3763 kbps / 24-bit (DTS Core: 5.1 / 48 kHz / 1509 kbps / 24-bit)
субтитры: русские - notabenoid (full), английские (SDH)
навигация по главам: 9 глав MediaInfo
Общее
Уникальный идентификатор : 240024947221998883896166693616108256173 (0xB4931F92423D2CD4863569AF5C553BAD)
Полное имя : D:\Im\Бэтмен Год первый\Batman Year One.2011.BDRemux 1080p.mkv
Формат : Matroska
Версия формата : Version 4 / Version 2
Размер файла : 11,1 Гбайт
Продолжительность : 1 ч. 4 м.
Режим общего битрейта : Переменный
Общий поток : 24,7 Мбит/сек
Название фильма : Batman: Year One.2011.BDRemux 1080p -Azureus-
Дата кодирования : UTC 2014-06-11 11:22:51
Программа кодирования : mkvmerge v6.9.1 ('Blue Panther') 32bit built on Apr 18 2014 18:15:44
Библиотека кодирования : libebml v1.3.0 + libmatroska v1.4.1
Видео
Идентификатор : 1
Формат : AVC
Формат/Информация : Advanced Video Codec
Профиль формата : High@L4.1
Параметр CABAC формата : Да
Параметр ReFrames формата : 2 кадра
Параметр GOP формата : M=1, N=10
Идентификатор кодека : V_MPEG4/ISO/AVC
Продолжительность : 1 ч. 4 м.
Вид битрейта : Переменный
Ширина : 1920 пикселей
Высота : 1080 пикселей
Соотношение сторон : 16:9
Режим частоты кадров : Постоянный
Частота кадров : 23,976 кадра/сек
Цветовое пространство : YUV
Субдискретизация насыщенности : 4:2:0
Битовая глубина : 8 бит
Тип развёртки : Прогрессивная
Язык : English
Default : Да
Forced : Нет
Аудио #1
Идентификатор : 2
Формат : AC-3
Формат/Информация : Audio Coding 3
Расширение режима : CM (complete main)
Параметр Endianness формата : Big
Идентификатор кодека : A_AC3
Продолжительность : 1 ч. 4 м.
Вид битрейта : Постоянный
Битрейт : 384 Кбит/сек
Каналы : 6 каналов
Расположение каналов : Front: L C R, Side: L R, LFE
Частота : 48,0 КГц
Битовая глубина : 16 бит
Метод сжатия : С потерями
Размер потока : 176 Мбайт (2%)
Заголовок : MVO - Iron Sound
Язык : Russian
Default : Да
Forced : Нет
Аудио #2
Идентификатор : 3
Формат : AC-3
Формат/Информация : Audio Coding 3
Расширение режима : CM (complete main)
Параметр Endianness формата : Big
Идентификатор кодека : A_AC3
Продолжительность : 1 ч. 4 м.
Вид битрейта : Постоянный
Битрейт : 448 Кбит/сек
Каналы : 6 каналов
Расположение каналов : Front: L C R, Side: L R, LFE
Частота : 48,0 КГц
Битовая глубина : 16 бит
Метод сжатия : С потерями
Размер потока : 206 Мбайт (2%)
Заголовок : MVO - ZM-SHOW
Язык : Russian
Default : Нет
Forced : Нет
Аудио #3
Идентификатор : 4
Формат : AC-3
Формат/Информация : Audio Coding 3
Расширение режима : CM (complete main)
Параметр Endianness формата : Big
Идентификатор кодека : A_AC3
Продолжительность : 1 ч. 4 м.
Вид битрейта : Постоянный
Битрейт : 192 Кбит/сек
Каналы : 2 канала
Расположение каналов : Front: L R
Частота : 48,0 КГц
Битовая глубина : 16 бит
Метод сжатия : С потерями
Размер потока : 88,1 Мбайт (1%)
Заголовок : VO
Язык : Russian
Default : Нет
Forced : Нет
Аудио #4
Идентификатор : 5
Формат : DTS
Формат/Информация : Digital Theater Systems
Профиль формата : MA / Core
Режим : 16
Параметр Endianness формата : Big
Идентификатор кодека : A_DTS
Продолжительность : 1 ч. 4 м.
Вид битрейта : Переменный
Битрейт : Неизвестно / 1509 Кбит/сек
Каналы : 6 каналов
Расположение каналов : Front: L C R, Side: L R, LFE
Частота : 48,0 КГц
Битовая глубина : 24 бит
Метод сжатия : Без потерь / Lossy
Заголовок : ENG
Язык : English
Default : Нет
Forced : Нет
Текст #1
Идентификатор : 6
Формат : UTF-8
Идентификатор кодека : S_TEXT/UTF8
Идентификатор кодека/Информация : UTF-8 Plain Text
Заголовок : Rus Sub - notabenoid
Язык : Russian
Default : Нет
Forced : Нет
Текст #2
Идентификатор : 7
Формат : UTF-8
Идентификатор кодека : S_TEXT/UTF8
Идентификатор кодека/Информация : UTF-8 Plain Text
Заголовок : Eng Sub - SDH
Язык : English
Default : Нет
Forced : Нет
Меню
00:00:00.000 : en:Chapter 1
00:01:51.153 : en:Chapter 2
00:09:41.331 : en:Chapter 3
00:18:57.011 : en:Chapter 4
00:27:09.837 : en:Chapter 5
00:39:44.465 : en:Chapter 6
00:49:16.328 : en:Chapter 7
00:59:46.041 : en:Chapter 8
01:00:39.052 : en:Chapter 9
Iron-Sound - роли озвучивали
Вячеслав Осипов, Molibden, Алексей Щегорский, Екатерина Дмитрова, Игорь Шлыков, Николай Филончик, Артем Тугеев, Нинель Нуретдинова, Валерий Нечай, Вера Гонская, Михаил Иванов, Алексей Букаткин, Иван Назаров, Мария Милахожина, Monset и Олег Шлыков.
ZM-SHOW- роли озвучивали
Олег Варганов, NIKITOS, ZM, Viki
Перевод на русские субтитры
Robby, heavenboy, Melton
____________________________________________
Стою на раздаче до 5 дней.
Просьба скачавшим как можно дольше не покидать раздачу!
ВСЕМ ПРИЯТНОГО ПРОСМОТРА!_________________________________________

_________________
Показать сообщения:    

Текущее время: Сегодня 11:02

Часовой пояс: GMT



Вы не можете начинать темы
Вы не можете отвечать на сообщения
Вы не можете редактировать свои сообщения
Вы не можете удалять свои сообщения
Вы не можете голосовать в опросах
Вы не можете прикреплять файлы к сообщениям
Вы не можете скачивать файлы