Важное объявление!
У Нас Все раздачи мультитрекерные, при нуле пиров в релизах, можете смело вставать на закачку!
 
Автор Сообщение

HUNTER

Стаж:
4 года 4 месяца
Сообщений:
56822

Репутация: 101

[+] [-]
Вне форума [Профиль] [ЛС]

Бэтмен будущего: Возвращение Джокера / Batman Beyond: Return of the Joker
-Страна: США
Жанр: Мультфильм, фантастика, боевик, по мотивам комикса
Продолжительность: 01:10:54
Год выпуска: 2000
Перевод 1: Профессиональный (дублированный) МОСТ ВИДЕО
Перевод 2: Профессиональный (многоголосый закадровый) ТВ3
Оригинальная аудио-дорожка: есть (английская)
Русские субтитры: есть-Режиссёр: Курт Геда / Curt Geda-Описание: Первый полнометражный мультфильм из серии БЭТМЭН БУДУЩЕГО!
И старому, и молодому Бэтмэнам не до смеха: самый опасный преступник всех времен возвращается из прошлого, чтобы мстить молодому Бэтмэну, Брюсу Уэйну и всему Готэму. Подлый, смертельно опасный, и, похоже, бессмертный Король Преступного мира возвращается, чтобы сеять зло и разрушение. Пытаясь разгадать тайну Джокера, молодой Бэтмэн, Терри МакГиннис, открывает величайший секрет старого Бэтмэна: он узнает, что на самом деле случилось в ночь его последней смертельной схватки с Джокером! Когда Брюс Вэйн практически уничтожен Джокером, Терри клянется отомстить за своего наставника.-Релиз от: -Благодарности:
Fikaloid - дубляж МОСТ ВИДЕО
medvezhonokkkk - перевод ТВ3
lex2085 - оригинальный ДВД, стерео дорожка MVO
-Семпл: http://multi-up.com/1067026-Качество: DVDRip
Формат: AVI-Видео: 704x528 (4:3), 25 fps, XviD build 73 ~2000 kbps avg, 0.22 bit/pixel
Аудио 1: 48 kHz, AC3 Dolby Digital, 2/0 (L,R) ch, ~192.00 kbps avg (DUB)
Аудио 2: 48 kHz, AC3 Dolby Digital, 2/0 (L,R) ch, ~192.00 kbps avg (MVO-stereo)
Аудио 3: 48 kHz, AC3 Dolby Digital, 3/2 (L,C,R,l,r) + LFE ch, ~384.00 kbps avg (Eng)
Формат субтитров: SRT

Отчёт MediaInfo

ОбщееПолное имя : C:\Бэтмен будущего. Возвращение Джокера.aviФормат : AVIФормат/Информация : Audio Video InterleaveРазмер файла : 1,38 ГбайтПродолжительность : 1 ч. 10 м.Общий поток : 2787 Кбит/секПрограмма кодирования : VirtualDubModRus 1.5.10.2 (build 2542/release)Библиотека кодирования : VirtualDubMod build 2542/release
ВидеоИдентификатор : 0Формат : MPEG-4 VisualПрофиль формата : Advanced Simple@L5Параметр BVOP формата : 1Параметр QPel формата : НетПараметр GMC формата : Без точки переходаПараметр матрицы формата : ВыборочнаяИдентификатор кодека : DX50Идентификатор кодека/Подсказка : DivX 5Продолжительность : 1 ч. 10 м.Битрейт : 2000 Кбит/секШирина : 704 пикселяВысота : 528 пикселейСоотношение сторон : 4:3Частота кадров : 25,000 кадров/секЦветовое пространство : YUVСубдискретизация насыщенности : 4:2:0Битовая глубина : 8 битТип развёртки : ПрогрессивнаяМетод сжатия : С потерямиБит/(Пиксели*Кадры) : 0.215Размер потока : 1014 Мбайт (72%)Библиотека кодирования : XviD 73
Аудио #1Идентификатор : 1Формат : AC-3Формат/Информация : Audio Coding 3Расширение режима : CM (complete main)Параметр Endianness формата : BigИдентификатор кодека : 2000Продолжительность : 1 ч. 10 м.Вид битрейта : ПостоянныйБитрейт : 192 Кбит/секКаналы : 2 каналаРасположение каналов : Front: L RЧастота : 48,0 КГцБитовая глубина : 16 битМетод сжатия : С потерямиРазмер потока : 97,4 Мбайт (7%)Выравнивание : Разделение по промежуткамПродолжительность промежутка : 40 мс. (1,00 видеокадр)Время предзагрузки промежутка : 500 мс.
Аудио #2Идентификатор : 2Формат : AC-3Формат/Информация : Audio Coding 3Расширение режима : CM (complete main)Параметр Endianness формата : BigИдентификатор кодека : 2000Продолжительность : 1 ч. 10 м.Вид битрейта : ПостоянныйБитрейт : 192 Кбит/секКаналы : 2 каналаРасположение каналов : Front: L RЧастота : 48,0 КГцБитовая глубина : 16 битМетод сжатия : С потерямиРазмер потока : 97,4 Мбайт (7%)Выравнивание : Разделение по промежуткамПродолжительность промежутка : 40 мс. (1,00 видеокадр)Время предзагрузки промежутка : 500 мс.
Аудио #3Идентификатор : 3Формат : AC-3Формат/Информация : Audio Coding 3Расширение режима : CM (complete main)Параметр Endianness формата : BigИдентификатор кодека : 2000Продолжительность : 1 ч. 10 м.Вид битрейта : ПостоянныйБитрейт : 384 Кбит/секКаналы : 6 каналовРасположение каналов : Front: L C R, Side: L R, LFEЧастота : 48,0 КГцБитовая глубина : 16 битМетод сжатия : С потерямиРазмер потока : 195 Мбайт (14%)Выравнивание : Разделение по промежуткамПродолжительность промежутка : 40 мс. (1,00 видеокадр)Время предзагрузки промежутка : 500 мс.

Скриншоты


_________________
Показать сообщения:    

Текущее время: Сегодня 22:40

Часовой пояс: GMT



Вы не можете начинать темы
Вы не можете отвечать на сообщения
Вы не можете редактировать свои сообщения
Вы не можете удалять свои сообщения
Вы не можете голосовать в опросах
Вы не можете прикреплять файлы к сообщениям
Вы не можете скачивать файлы